[ create a new paste ] login | about

Link: http://codepad.org/SKH6bdwG    [ raw code | fork ]

Plain Text, pasted on Jan 9:
Exact Audio Copy V1.0 beta 3 from 29. August 2011

EAC extraction logfile from 14. May 2013, 21:53

Doobie Brothers / What Were Once Vices Are Now Habits

Used drive  : PLEXTOR BD-R  PX-B950SA   Adapter: 6  ID: 0

Read mode               : Secure
Utilize accurate stream : Yes
Defeat audio cache      : Yes
Make use of C2 pointers : No

Read offset correction                      : 6
Overread into Lead-In and Lead-Out          : No
Fill up missing offset samples with silence : Yes
Delete leading and trailing silent blocks   : No
Null samples used in CRC calculations       : Yes
Used interface                              : Native Win32 interface for Win NT & 2000

Used output format : Internal WAV Routines
Sample format      : 44.100 Hz; 16 Bit; Stereo


TOC of the extracted CD

     Track |   Start  |  Length  | Start sector | End sector 
    ---------------------------------------------------------
        1  |  0:00.00 |  4:08.17 |         0    |    18616   
        2  |  4:08.17 |  3:16.03 |     18617    |    33319   
        3  |  7:24.20 |  2:35.42 |     33320    |    44986   
        4  |  9:59.62 |  4:21.03 |     44987    |    64564   
        5  | 14:20.65 |  3:00.40 |     64565    |    78104   
        6  | 17:21.30 |  4:48.10 |     78105    |    99714   
        7  | 22:09.40 |  3:31.15 |     99715    |   115554   
        8  | 25:40.55 |  3:55.35 |    115555    |   133214   
        9  | 29:36.15 |  4:17.40 |    133215    |   152529   
       10  | 33:53.55 |  4:31.30 |    152530    |   172884   
       11  | 38:25.10 |  4:35.08 |    172885    |   193517   
       12  | 43:00.18 |  2:00.57 |    193518    |   202574   


Range status and errors

Selected range

     Filename C:\Doobie Brothers\2013 Original Album Series (5CD Box Set Rhino Records)\1974 What Were Once Vices Are Now Habits\Doobie Brothers - What Were Once Vices Are Now Habits.wav

     Peak level 100.0 %
     Extraction speed 7.2 X
     Range quality 100.0 %
     Test CRC FBFC0239
     Copy CRC FBFC0239
     Copy OK

No errors occurred

 
AccurateRip summary
 
Track  1  cannot be verified as accurate (confidence 6)  [06E5511A], AccurateRip returned [7F9DA0AB]  (AR v2)
Track  2  cannot be verified as accurate (confidence 6)  [D0C6A9FF], AccurateRip returned [4130BFDA]  (AR v2)
Track  3  cannot be verified as accurate (confidence 6)  [ECA5905D], AccurateRip returned [84CC777A]  (AR v2)
Track  4  cannot be verified as accurate (confidence 6)  [81829C52], AccurateRip returned [C8D420A6]  (AR v2)
Track  5  cannot be verified as accurate (confidence 6)  [A7B504D7], AccurateRip returned [DF22C80E]  (AR v2)
Track  6  cannot be verified as accurate (confidence 6)  [80EEF917], AccurateRip returned [B69D9C49]  (AR v2)
Track  7  cannot be verified as accurate (confidence 6)  [7E6294A8], AccurateRip returned [B25AA717]  (AR v2)
Track  8  cannot be verified as accurate (confidence 6)  [379EDCA9], AccurateRip returned [8E4BB1A4]  (AR v2)
Track  9  cannot be verified as accurate (confidence 6)  [EE277681], AccurateRip returned [5019A118]  (AR v2)
Track 10  cannot be verified as accurate (confidence 6)  [6E6AF17D], AccurateRip returned [5E365320]  (AR v2)
Track 11  cannot be verified as accurate (confidence 6)  [C4CA2B22], AccurateRip returned [F19675CB]  (AR v2)
Track 12  cannot be verified as accurate (confidence 6)  [88182602], AccurateRip returned [1EE503D9]  (AR v2)
 
No tracks could be verified as accurate
You may have a different pressing from the one(s) in the database

End of status report

==== Log checksum 37467B1B86367A26DF17383913251806967A3CE809AA94B4678F454CA1B31237 ====



Create a new paste based on this one


Comments: