[ create a new paste ] login | about

Link: http://codepad.org/SL1Zus62    [ raw code | fork ]

Plain Text, pasted on Jun 7:
[CUETools log; Date: 6/6/2016 6:38:58 PM; Version: 2.1.5]
[CTDB TOCID: lCfJPzOaOCgrAGaICC6havKLqMc-] found.
Track | CTDB Status
  1   | (12/12) Accurately ripped
  2   | (12/12) Accurately ripped
  3   | (12/12) Accurately ripped
  4   | (12/12) Accurately ripped
  5   | (12/12) Accurately ripped
  6   | (12/12) Accurately ripped
  7   | (12/12) Accurately ripped
  8   | (12/12) Accurately ripped
  9   | (12/12) Accurately ripped
 10   | (12/12) Accurately ripped
 11   | (12/12) Accurately ripped
 12   | (12/12) Accurately ripped
 13   | (12/12) Accurately ripped
 14   | (12/12) Accurately ripped
 15   | (12/12) Accurately ripped
[AccurateRip ID: 001d9035-0150ad47-d90c9b0f] found.
Track   [  CRC   |   V2   ] Status
 01     [71da6380|5941b5c3] (14+14/28) Accurately ripped
 02     [72290549|5aaf0fbb] (15+13/28) Accurately ripped
 03     [06b0ae25|4faa6325] (14+14/28) Accurately ripped
 04     [4e84cd0a|59d1143f] (15+14/29) Accurately ripped
 05     [b5b9cd70|7a047cd6] (16+14/30) Accurately ripped
 06     [eb4479c4|0fedf699] (15+13/28) Accurately ripped
 07     [e8af387b|a3a48668] (14+13/27) Accurately ripped
 08     [184e62e9|d7415879] (14+13/27) Accurately ripped
 09     [bf04326c|55f1e082] (14+13/27) Accurately ripped
 10     [419dda46|4016513f] (14+13/27) Accurately ripped
 11     [066b8261|975c08bf] (15+14/29) Accurately ripped
 12     [92127bcd|196925af] (15+15/30) Accurately ripped
 13     [5bec017c|c20bf880] (14+14/28) Accurately ripped
 14     [e69a4c35|4c0eacf1] (15+15/30) Accurately ripped
 15     [9acbf84e|47791b1d] (14+13/27) Accurately ripped

Track Peak [ CRC32  ] [W/O NULL] [  LOG   ]
 --   99.9 [D752232C] [9D8788CA]   CRC32   
 01   97.8 [A7D48CE0] [CA593A89]           
 02   99.1 [7271AAA1] [F7BA997A]           
 03   91.8 [884685BE] [0146C7CA]           
 04   99.8 [DE25300E] [3BEC33FF]           
 05   99.8 [5EE0BF5E] [2DC643EA]           
 06   99.8 [EE687691] [E959BAA3]           
 07   99.9 [8A0263C8] [F63FF620]           
 08   99.8 [636D4E93] [31FA15D9]           
 09   95.8 [51FA00AC] [5A6ED71A]           
 10   93.1 [B902A1C8] [1E9DCEA9]           
 11   99.0 [460CA27D] [2733245C]           
 12   99.8 [2FB8E87C] [75E45C2B]           
 13   99.8 [E31BFE96] [56DE71AB]           
 14   99.8 [A6E82351] [8D9ACA7F]           
 15   99.8 [D33E7642] [61F477FE]           



Create a new paste based on this one


Comments: