[ create a new paste ] login | about

Link: http://codepad.org/SOtkIfS3    [ raw code | fork ]

Plain Text, pasted on Dec 9:
foobar2000 1.6 / Dynamic Range Meter 1.1.1
log date: 2020-12-08 17:03:42

--------------------------------------------------------------------------------
Analyzed: Henry Mancini / Brass Ivory & Strings
--------------------------------------------------------------------------------

DR         Peak         RMS     Duration Track
--------------------------------------------------------------------------------
DR11      -5.45 dB   -24.34 dB      3:16 01-Theme for Doc  
DR10      -5.48 dB   -24.44 dB      3:01 02-Ben 
DR10      -5.85 dB   -25.78 dB      4:09 03-Help Me Make it Through the Night  
DR11      -7.81 dB   -26.20 dB      2:58 04-Round Midnight 
DR10      -6.53 dB   -24.67 dB      3:22 05-Without You  
DR11      -7.10 dB   -26.45 dB      3:35 06-Make it With You  
DR10      -8.86 dB   -26.31 dB      3:44 07-Lover Man 
DR10      -5.50 dB   -24.41 dB      3:10 08-Wave 
DR10      -6.17 dB   -25.73 dB      3:04 09-Love Theme for Laura  
DR11      -8.59 dB   -26.70 dB      3:30 10-I Cant Get Started  
DR10      -7.92 dB   -24.64 dB      2:48 11-Brass on Ivory  
DR10      -9.18 dB   -27.69 dB      2:22 12-Dreamsville 
DR10      -9.73 dB   -26.29 dB      3:29 13-Brians Song The Hands of Time  
DR10      -9.14 dB   -25.47 dB      3:16 14- If  
DR10      -9.34 dB   -25.93 dB      3:13 15-Willow Weep for Me  
DR9       -7.80 dB   -25.18 dB      2:48 16-Sometimes 
DR10     -10.11 dB   -26.38 dB      3:08 17-Poor Butterfly  
DR10     -10.20 dB   -26.81 dB      3:18 18-Misty 
DR10     -10.51 dB   -26.68 dB      2:33 19-Never My Love  
DR10      -8.89 dB   -26.45 dB      3:06 20-Weve Only Just Begun  
DR10      -8.07 dB   -26.73 dB      3:17 21-Soldier in the Rain  
--------------------------------------------------------------------------------

Number of tracks:  21
Official DR value: DR10

Samplerate:        2822400 Hz / PCM Samplerate: 176400 Hz
Channels:          6
Bits per sample:   1
Bitrate:           16934 kbps
Codec:             DST64
================================================================================

--------------------------------------------------------------------------------
Analyzed: Henry Mancini / Brass Ivory & Strings
--------------------------------------------------------------------------------

DR         Peak         RMS     Duration Track
--------------------------------------------------------------------------------
DR14      -7.33 dB   -24.02 dB      3:16 01-Theme for Doc  
DR11      -7.97 dB   -22.18 dB      3:01 02-Ben 
DR12      -8.45 dB   -23.34 dB      4:09 03-Help Me Make it Through the Night  
DR12      -7.37 dB   -22.77 dB      2:58 04-Round Midnight 
DR12      -8.55 dB   -23.80 dB      3:22 05-Without You  
DR13      -8.66 dB   -24.52 dB      3:35 06-Make it With You  
DR12      -8.69 dB   -23.75 dB      3:44 07-Lover Man 
DR11      -8.69 dB   -24.29 dB      3:10 08-Wave 
DR12      -9.04 dB   -24.75 dB      3:04 09-Love Theme for Laura  
DR13      -8.50 dB   -24.24 dB      3:30 10-I Cant Get Started  
DR11     -10.21 dB   -24.65 dB      2:48 11-Brass on Ivory  
DR11      -9.03 dB   -24.12 dB      2:22 12-Dreamsville 
DR11      -8.95 dB   -24.20 dB      3:29 13-Brians Song The Hands of Time  
DR11      -9.64 dB   -23.72 dB      3:16 14- If  
DR12      -9.21 dB   -24.20 dB      3:13 15-Willow Weep for Me  
DR10     -10.89 dB   -24.54 dB      2:48 16-Sometimes 
DR11      -9.40 dB   -24.24 dB      3:08 17-Poor Butterfly  
DR11      -9.67 dB   -24.10 dB      3:18 18-Misty 
DR11      -8.94 dB   -23.20 dB      2:33 19-Never My Love  
DR12      -8.75 dB   -23.43 dB      3:06 20-Weve Only Just Begun  
DR10      -9.06 dB   -24.91 dB      3:17 21-Soldier in the Rain  
--------------------------------------------------------------------------------

Number of tracks:  21
Official DR value: DR12

Samplerate:        2822400 Hz / PCM Samplerate: 176400 Hz
Channels:          2
Bits per sample:   1
Bitrate:           5645 kbps
Codec:             DST64
================================================================================




Create a new paste based on this one


Comments: