[ create a new paste ] login | about

Link: http://codepad.org/SYvIkN8i    [ raw code | fork ]

Plain Text, pasted on Sep 5:
Disc 1

[CUETools log; Date: 9/5/2019 11:24:47 AM; Version: 2.1.5]
[CTDB TOCID: mfcCoeS2sDywS64NNYPGwa9xUaw-] found.
Track | CTDB Status
  1   | (27/27) Accurately ripped
  2   | (27/27) Accurately ripped
  3   | (27/27) Accurately ripped
  4   | (27/27) Accurately ripped
  5   | (27/27) Accurately ripped
  6   | (27/27) Accurately ripped
  7   | (27/27) Accurately ripped
  8   | (27/27) Accurately ripped
  9   | (27/27) Accurately ripped
 10   | (27/27) Accurately ripped
 11   | (27/27) Accurately ripped
 12   | (27/27) Accurately ripped
 13   | (26/27) Accurately ripped
 14   | (27/27) Accurately ripped
 15   | (27/27) Accurately ripped
 16   | (27/27) Accurately ripped
 17   | (27/27) Accurately ripped
 18   | (27/27) Accurately ripped
[AccurateRip ID: 002d373a-02603cc8-0d108712] found.
Track   [  CRC   |   V2   ] Status
 01     [8f6511cc|3877df23] (00+14/14) Accurately ripped
 02     [8aab2566|92287b4e] (00+15/15) Accurately ripped
 03     [76fa686f|b962cce8] (00+15/15) Accurately ripped
 04     [608ce829|992331ff] (00+15/15) Accurately ripped
 05     [a844eb90|994a3c47] (00+15/15) Accurately ripped
 06     [0aa6eb82|aa8d7753] (00+15/15) Accurately ripped
 07     [ecd403fa|1b4e4168] (00+15/15) Accurately ripped
 08     [a2b7d311|ecc4275e] (00+15/15) Accurately ripped
 09     [2a0efd3e|3b541ff5] (00+15/15) Accurately ripped
 10     [642eeed1|1759c24a] (00+15/15) Accurately ripped
 11     [3d1e965f|bd60c309] (00+15/15) Accurately ripped
 12     [9e54e931|fca52e88] (00+15/15) Accurately ripped
 13     [db73aece|3e5877e7] (00+14/14) Accurately ripped
 14     [9181f4d9|4ebbfab7] (00+15/15) Accurately ripped
 15     [92703526|a9668c20] (00+15/15) Accurately ripped
 16     [ccc693de|843467a8] (00+16/16) Accurately ripped
 17     [d0532afa|4cfd53bb] (00+16/16) Accurately ripped
 18     [6c8cca67|f287949f] (00+16/16) Accurately ripped

Track Peak [ CRC32  ] [W/O NULL] [  LOG   ]
 --   93.3 [3FAD9D66] [D569E743]   CRC32   
 01   34.7 [AC4DF66D] [721EBF69]           
 02   46.6 [C1FA5D9A] [0E967D41]           
 03   93.3 [1CD77F47] [7C2FC35E]           
 04   62.3 [74F16B2E] [C7C9FD1C]           
 05   74.6 [369A9C91] [BB15CCBD]           
 06   63.7 [82C974BD] [F54C81CB]           
 07   51.3 [D1F8F71D] [39559CCB]           
 08   48.7 [4FCF714A] [12653AB7]           
 09   72.2 [A3DA7126] [904A5D66]           
 10   93.0 [87262F14] [9209B60D]           
 11   57.1 [9F5AD89F] [FD41EDE0]           
 12   39.5 [76578398] [516B6A69]           
 13   37.8 [4B0F1498] [63FBE5D3]           
 14   48.4 [63F82C75] [E06837E4]           
 15   91.9 [33BE0D51] [5A7B25F0]           
 16   63.9 [9C49E621] [4598A171]           
 17   89.0 [AEBEAC52] [2BF2DBC6]           
 18   75.6 [DFC5F0C7] [5FBCDE62]           

=========================================================================================================================================================

Disc 2

[CUETools log; Date: 9/5/2019 11:24:33 AM; Version: 2.1.5]
[CTDB TOCID: .heMzjXpD2zLN5JmeSki0Afu4zE-] found.
Track | CTDB Status
  1   | (30/30) Accurately ripped
  2   | (30/30) Accurately ripped
  3   | (30/30) Accurately ripped
  4   | (30/30) Accurately ripped
  5   | (30/30) Accurately ripped
  6   | (30/30) Accurately ripped
  7   | (30/30) Accurately ripped
  8   | (30/30) Accurately ripped
  9   | (30/30) Accurately ripped
 10   | (30/30) Accurately ripped
 11   | (30/30) Accurately ripped
 12   | (30/30) Accurately ripped
 13   | (30/30) Accurately ripped
 14   | (30/30) Accurately ripped
 15   | (30/30) Accurately ripped
 16   | (30/30) Accurately ripped
 17   | (30/30) Accurately ripped
 18   | (30/30) Accurately ripped
 19   | (30/30) Accurately ripped
 20   | (29/30) Accurately ripped
[AccurateRip ID: 00336805-02ee614a-02106014] found.
Track   [  CRC   |   V2   ] Status
 01     [5be2cb8e|4a2fff59] (00+14/14) Accurately ripped
 02     [498c565c|eb0ed5a8] (00+15/15) Accurately ripped
 03     [b0a3335d|8fb6d0cf] (00+15/15) Accurately ripped
 04     [7031fdf3|d0dd0498] (00+15/15) Accurately ripped
 05     [fa24749d|58dfeb28] (00+15/15) Accurately ripped
 06     [1cbd496b|45677a04] (00+15/15) Accurately ripped
 07     [a487c0a4|1bbcfab5] (00+15/15) Accurately ripped
 08     [1f773357|75c0d7cd] (00+14/14) Accurately ripped
 09     [143fa4e0|a728bc3e] (00+15/15) Accurately ripped
 10     [4fa59839|ebf462f3] (00+15/15) Accurately ripped
 11     [6e8d6baa|2b98b8da] (00+15/15) Accurately ripped
 12     [433b38d2|18609d00] (00+15/15) Accurately ripped
 13     [e68f8319|00f222e8] (00+15/15) Accurately ripped
 14     [a33e57ea|e818781b] (00+15/15) Accurately ripped
 15     [5607bcd9|961247fd] (00+15/15) Accurately ripped
 16     [38e4f2d8|89c5f88d] (00+15/15) Accurately ripped
 17     [da3f0e3d|d1669843] (00+15/15) Accurately ripped
 18     [5dfbd1d7|ccd187a3] (00+15/15) Accurately ripped
 19     [4f0caefa|f0996f98] (00+16/16) Accurately ripped
 20     [e611c5c5|ae005d4c] (00+15/15) Accurately ripped

Track Peak [ CRC32  ] [W/O NULL] [  LOG   ]
 --   94.9 [CF93795E] [82916CD8]   CRC32   
 01   52.0 [5D6A8018] [75542DFC]           
 02   80.1 [B0FD92C4] [84980DA0]           
 03   59.2 [8B947987] [F08448EC]           
 04   66.5 [09087E86] [B8404E2C]           
 05   87.0 [9EEB6857] [3123E409]           
 06   68.9 [32A07F62] [0E44D9E6]           
 07   46.8 [F38136A0] [EB1BB044]           
 08   94.6 [A66CCCA6] [A7E8AE5F]           
 09   60.2 [304CEDBF] [50920D38]           
 10   93.7 [EBD06086] [8F68CE77]           
 11   42.9 [97F54DA2] [22A9B2D9]           
 12   39.2 [624B440A] [0A6887C6]           
 13   59.4 [22BCFDCD] [ABB780F3]           
 14   82.2 [6EAED9A2] [F3B0C68D]           
 15   50.1 [07453D2F] [4335BD08]           
 16   93.4 [C22BBF7F] [6E7DCBA2]           
 17   74.7 [8B2ECC63] [2D5B69A8]           
 18   94.1 [C3CC69D0] [EEBF808A]           
 19   84.9 [1A6249DA] [43B03001]           
 20   94.9 [EB5F08F8] [CDE30BB3]           



Create a new paste based on this one


Comments: