[ create a new paste ] login | about

Link: http://codepad.org/SdqUCqWK    [ raw code | fork ]

Plain Text, pasted on Jan 20:
foobar2000 1.5 / Dynamic Range Meter 1.1.1
log date: 2020-01-20 19:44:17

--------------------------------------------------------------------------------
Analyzed: Greatful Dead / From The Mars Hotel
--------------------------------------------------------------------------------

DR         Peak         RMS     Duration Track
--------------------------------------------------------------------------------
DR12      -0.81 dB   -14.61 dB      4:37 01-U.S. Blues
DR13      -2.30 dB   -18.60 dB      4:07 02-China Doll
DR12      -0.47 dB   -15.75 dB      6:42 03-Unbroken Chain
DR12      -0.11 dB   -14.10 dB      3:19 04-Loose Lucy
DR12      -0.24 dB   -14.43 dB      4:17 05-Scarlet Begonias
DR12      -0.06 dB   -14.31 dB      4:14 06-Pride Of Cucamonga
DR11      -0.21 dB   -13.03 dB      4:21 07-Money Money
DR13      -0.63 dB   -15.90 dB      5:27 08-Ship Of Fools
--------------------------------------------------------------------------------

Number of tracks:  8
Official DR value: DR12

Samplerate:        44100 Hz
Channels:          2
Bits per sample:   16
Bitrate:           705 kbps
Codec:             FLAC
================================================================================




Create a new paste based on this one


Comments: