[ create a new paste ] login | about

Link: http://codepad.org/Sep7Pop2    [ raw code | fork ]

Plain Text, pasted on Dec 23:
foobar2000 1.4.1 / Dynamic Range Meter 1.1.1
log date: 2018-12-23 10:27:10

--------------------------------------------------------------------------------
Analyzed: Jethro Tull / This Was: 2018 Album Remix Stereo
--------------------------------------------------------------------------------

DR         Peak         RMS     Duration Track
--------------------------------------------------------------------------------
DR11      -0.10 dB   -13.32 dB      3:43 01-My Sunday Feeling
DR12      -1.07 dB   -17.40 dB      2:49 02-Some Day The Sun Won't Shine For You
DR11      -0.10 dB   -13.45 dB      4:23 03-Beggar's Farm
DR13      -0.10 dB   -15.81 dB      2:00 04-Move On Alone
DR13      -0.10 dB   -16.40 dB      6:08 05-Serenade To A Cuckoo
DR13      -0.10 dB   -15.05 dB      4:15 06-Dharma For One
DR12      -0.10 dB   -14.78 dB      5:04 07-It's Breaking Me Up
DR11      -0.10 dB   -13.75 dB      5:42 08-Cat's Squirrel
DR12      -0.10 dB   -14.62 dB      3:22 09-A Song For Jeffrey
DR11      -4.20 dB   -22.07 dB      0:55 10-Round
--------------------------------------------------------------------------------

Number of tracks:  10
Official DR value: DR12

Samplerate:        96000 Hz
Channels:          2
Bits per sample:   24
Bitrate:           2182 kbps
Codec:             FLAC
================================================================================




Create a new paste based on this one


Comments: