[ create a new paste ] login | about

Link: http://codepad.org/SfRABpxZ    [ raw code | fork ]

Plain Text, pasted on Nov 2:
Exact Audio Copy V1.1 from 23. June 2015

EAC extraction logfile from 22. October 2016, 18:14

Lou Reed / New Sensations

Used drive  : PLEXTOR BD-R  PX-B950SA   Adapter: 1  ID: 1

Read mode               : Secure
Utilize accurate stream : Yes
Defeat audio cache      : Yes
Make use of C2 pointers : No

Read offset correction                      : 6
Overread into Lead-In and Lead-Out          : No
Fill up missing offset samples with silence : Yes
Delete leading and trailing silent blocks   : No
Null samples used in CRC calculations       : Yes
Used interface                              : Native Win32 interface for Win NT & 2000

Used output format : Internal WAV Routines
Sample format      : 44.100 Hz; 16 Bit; Stereo


TOC of the extracted CD

     Track |   Start  |  Length  | Start sector | End sector 
    ---------------------------------------------------------
        1  |  0:00.00 |  3:17.53 |         0    |    14827   
        2  |  3:17.53 |  3:58.44 |     14828    |    32721   
        3  |  7:16.22 |  3:36.16 |     32722    |    48937   
        4  | 10:52.38 |  4:23.50 |     48938    |    68712   
        5  | 15:16.13 |  5:48.71 |     68713    |    94883   
        6  | 21:05.09 |  3:56.41 |     94884    |   112624   
        7  | 25:01.50 |  3:39.10 |    112625    |   129059   
        8  | 28:40.60 |  3:08.35 |    129060    |   143194   
        9  | 31:49.20 |  3:58.01 |    143195    |   161045   
       10  | 35:47.21 |  3:28.17 |    161046    |   176662   
       11  | 39:15.38 |  3:41.74 |    176663    |   193311   


Range status and errors

Selected range

     Filename C:\Lou Reed\2016 RCA & Arista Album Collection (17CD Box Set Sony Music)\1984 New Sensations\Lou Reed - New Sensations.wav

     Peak level 97.1 %
     Extraction speed 6.7 X
     Range quality 100.0 %
     Test CRC 8A041F7C
     Copy CRC 8A041F7C
     Copy OK

No errors occurred

 
AccurateRip summary
 
Track  1  not present in database
Track  2  not present in database
Track  3  not present in database
Track  4  not present in database
Track  5  not present in database
Track  6  not present in database
Track  7  not present in database
Track  8  not present in database
Track  9  not present in database
Track 10  not present in database
Track 11  not present in database
 
None of the tracks are present in the AccurateRip database

End of status report

---- CUETools DB Plugin V2.1.6

[CTDB TOCID: 35VR1jNdBroD.k8TYGGUXYWg4lM-] found
Submit result: 35VR1jNdBroD.k8TYGGUXYWg4lM- has been confirmed
Track | CTDB Status
  1   | (4/4) Accurately ripped
  2   | (4/4) Accurately ripped
  3   | (4/4) Accurately ripped
  4   | (4/4) Accurately ripped
  5   | (4/4) Accurately ripped
  6   | (4/4) Accurately ripped
  7   | (4/4) Accurately ripped
  8   | (4/4) Accurately ripped
  9   | (4/4) Accurately ripped
 10   | (4/4) Accurately ripped
 11   | (4/4) Accurately ripped


==== Log checksum 79B9996FC91DF0A5CD7A0C136DC7D4078D26EEC6D8260B5E26D9D195E23D899E ====



Create a new paste based on this one


Comments: