[ create a new paste ] login | about

Link: http://codepad.org/Sg1DeTXm    [ raw code | fork ]

Plain Text, pasted on Jun 15:
Exact Audio Copy V1.1 from 23. June 2015

EAC extraction logfile from 9. June 2016, 9:01

Guns N' Roses / Greatest Hits Live-in Concert on Air 1989-1991 CD3

Used drive  : PIONEER BD-RW   BDR-209D   Adapter: 0  ID: 5

Read mode               : Secure
Utilize accurate stream : Yes
Defeat audio cache      : Yes
Make use of C2 pointers : No

Read offset correction                      : 667
Overread into Lead-In and Lead-Out          : No
Fill up missing offset samples with silence : Yes
Delete leading and trailing silent blocks   : No
Null samples used in CRC calculations       : Yes
Used interface                              : Installed external ASPI interface

Used output format              : User Defined Encoder
Selected bitrate                : 768 kBit/s
Quality                         : High
Add ID3 tag                     : No
Command line compressor         : C:\Program Files (x86)\Exact Audio Copy\FLAC\FLAC.EXE
Additional command line options : -6 -V -T "ARTIST=%artist%" -T "TITLE=%title%" -T "ALBUM=%albumtitle%" -T "DATE=%year%" -T "TRACKNUMBER=%tracknr%" -T "GENRE=%genre%" -T "COMMENT=%comment%" -T "BAND=%albuminterpret%" -T "ALBUMARTIST=%albuminterpret%" -T "COMPOSER=%composer%" %haslyrics%--tag-from-file=LYRICS="%lyricsfile%"%haslyrics% -T "DISCNUMBER=%cdnumber%" -T "TOTALDISCS=%totalcds%" -T "TOTALTRACKS=%numtracks%" %hascover%--picture="%coverfile%"%hascover% %source% -o %dest%


TOC of the extracted CD

     Track |   Start  |  Length  | Start sector | End sector 
    ---------------------------------------------------------
        1  |  0:00.52 |  3:13.09 |        52    |    14535   
        2  |  3:13.61 |  5:54.54 |     14536    |    41139   
        3  |  9:08.40 |  6:15.65 |     41140    |    69329   
        4  | 15:24.30 |  5:50.22 |     69330    |    95601   
        5  | 21:14.52 |  5:14.61 |     95602    |   119212   
        6  | 26:29.38 |  7:41.37 |    119213    |   153824   
        7  | 34:11.00 |  9:39.65 |    153825    |   197314   
        8  | 43:50.65 |  5:03.38 |    197315    |   220077   
        9  | 48:54.28 |  6:03.13 |    220078    |   247315   
       10  | 54:57.41 |  4:29.62 |    247316    |   267552   
       11  | 59:27.28 |  4:30.35 |    267553    |   287837   
       12  | 63:57.63 |  3:07.11 |    287838    |   301873   
       13  | 67:04.74 |  1:45.23 |    301874    |   309771   
       14  | 68:50.22 |  7:08.44 |    309772    |   341915   


Range status and errors

Selected range

     Filename E:\MUSIC\Guns N' Roses - Greatest Hits Live-in Concert on Air 1989-1991 CD3.wav

     Peak level 98.8 %
     Extraction speed 8.0 X
     Range quality 100.0 %
     Test CRC E220D38E
     Copy CRC E220D38E
     Copy OK

No errors occurred

 
AccurateRip summary
 
Track  1  not present in database
Track  2  not present in database
Track  3  not present in database
Track  4  not present in database
Track  5  not present in database
Track  6  not present in database
Track  7  not present in database
Track  8  not present in database
Track  9  not present in database
Track 10  not present in database
Track 11  not present in database
Track 12  not present in database
Track 13  not present in database
Track 14  not present in database
 
None of the tracks are present in the AccurateRip database

End of status report

==== Log checksum 01A8349984D01AE62B72CCA168E746DCF6FC57A38142693170C2E516530A6F64 ====



Create a new paste based on this one


Comments: