[ create a new paste ] login | about

Link: http://codepad.org/ShaZggWC    [ raw code | fork ]

Plain Text, pasted on Jan 3:
foobar2000 1.5 / Dynamic Range Meter 1.1.1
log date: 2020-01-03 17:46:12

--------------------------------------------------------------------------------
Analyzed: Bee Gees / Trafalgar
--------------------------------------------------------------------------------

DR         Peak         RMS     Duration Track
--------------------------------------------------------------------------------
DR11      -0.06 dB   -15.50 dB      3:56 01-How Can You Mend A Broken Heart
DR12      -0.36 dB   -15.12 dB      3:43 02-Israel
DR12      -1.96 dB   -17.97 dB      4:17 03-The Greatest Man In The World
DR13      -0.11 dB   -17.42 dB      2:32 04-It's Just The Way
DR11      -1.55 dB   -16.07 dB      4:00 05-Remembering
DR11      -0.10 dB   -16.50 dB      3:30 06-Somebody Stop The Music
DR11      -1.51 dB   -16.91 dB      3:51 07-Trafalgar
DR11      -1.69 dB   -16.43 dB      5:23 08-Don't Wanna Live Inside Myself
DR13      -0.39 dB   -16.08 dB      3:57 09-When Do I
DR11      -5.56 dB   -20.52 dB      3:51 10-Dearest
DR12      -1.10 dB   -16.60 dB      3:59 11-Lion In Winter
DR11      -0.52 dB   -15.07 dB      3:49 12-Walking Back To Waterloo
--------------------------------------------------------------------------------

Number of tracks:  12
Official DR value: DR12

Samplerate:        44100 Hz
Channels:          2
Bits per sample:   16
Bitrate:           840 kbps
Codec:             FLAC
================================================================================




Create a new paste based on this one


Comments: