[ create a new paste ] login | about

Link: http://codepad.org/ShrSsEbr    [ raw code | fork ]

Plain Text, pasted on Mar 29:
foobar2000 1.3.17 / Dynamic Range Meter 1.1.1
log date: 2018-03-28 11:29:52

--------------------------------------------------------------------------------
Analyzed: Grateful Dead / The Best Of The Grateful Dead Live (Remastered)
--------------------------------------------------------------------------------

DR         Peak         RMS     Duration Track
--------------------------------------------------------------------------------
DR9       -0.50 dB   -14.09 dB      6:39 01-St. Stephen (Live at The Fillmore West, San Francisco, CA 2-27-69)
DR12      -0.20 dB   -14.09 dB      5:43 02-Bertha (Live at The Fillmore East, New York, NY 4-27-71)
DR13      -0.23 dB   -15.42 dB      8:32 03-Wharf Rat (Live at The Fillmore East, New York, NY 4-26-71)
DR11      -0.18 dB   -13.69 dB      7:12 04-Sugar Magnolia (Live at The Olympia Theatre, Paris France 5-4-72)
DR11      -0.20 dB   -14.34 dB      4:51 05-Jack Straw (Live at The Olympia Theatre, Paris France 5-3-72)
DR11      -0.18 dB   -13.90 dB     13:07 06-Truckin' (Live at Lyceum Theatre, London, England 5-26-72)
DR12      -0.20 dB   -16.07 dB     11:29 07-Morning Dew (Live at Lyceum Theatre, London, England 5-26-72)
DR12      -0.19 dB   -15.03 dB      4:40 08-Brown-Eyed Women (Live at Tivoli Concert Hall, Copenhagen, Denmark 4-14-72)
DR13      -0.20 dB   -15.95 dB      5:28 09-The Music Never Stopped (Live at The Great American Music Hall, San Francisco, CA 8-13-75)
DR14      -0.16 dB   -16.00 dB      8:44 10-Estimated Prophet (Live at Barton Hall, Cornell University, Ithaca, NY 5-8-77)
--------------------------------------------------------------------------------

Number of tracks:  10
Official DR value: DR12

Samplerate:        44100 Hz
Channels:          2
Bits per sample:   16
Bitrate:           784 kbps
Codec:             FLAC
================================================================================


foobar2000 1.3.17 / Dynamic Range Meter 1.1.1
log date: 2018-03-28 11:30:32

--------------------------------------------------------------------------------
Analyzed: Grateful Dead / The Best Of The Grateful Dead Live (Remastered)
--------------------------------------------------------------------------------

DR         Peak         RMS     Duration Track
--------------------------------------------------------------------------------
DR13      -0.44 dB   -18.01 dB      7:32 11-Friend Of The Devil (Live at Radio City Music Hall, New York, NY 10-27-80)
DR14      -0.91 dB   -17.56 dB      5:47 12-Feel Like A Stranger (Live at the Warfield Theatre, San Francisco, CA 10-4-80)
DR14      -0.04 dB   -16.98 dB      6:47 13-Fire On The Mountain (Live at Radio City Music Hall, New York, NY 10-31-80)
DR10      -0.69 dB   -14.25 dB      7:38 14-Bird Song (Live 1980)
DR11      -1.42 dB   -16.19 dB      4:28 15-Ripple (Live at the Warfield Theatre, San Francisco, CA 10-4-80)
DR13      -0.29 dB   -14.76 dB     16:16 16-Eyes Of The World (Live at Nassau Coliseum, Uniondale, NY 3-29-90)
DR11       0.00 dB   -12.71 dB      6:32 17-Touch Of Grey (Live at Rich Stadium, Orchard Park, NY 7-4-89)
DR10      -0.06 dB   -12.10 dB     12:21 18-Blow Away (Live at John F. Kennedy Stadium, Philadelphia, PA 7-7-89)
DR13      -0.20 dB   -16.86 dB      9:36 19-So Many Roads (Live at Soldier Field, Chicago, IL 7-9-95)
--------------------------------------------------------------------------------

Number of tracks:  9
Official DR value: DR12

Samplerate:        44100 Hz
Channels:          2
Bits per sample:   16
Bitrate:           823 kbps
Codec:             FLAC
================================================================================




Create a new paste based on this one


Comments: