[ create a new paste ] login | about

Link: http://codepad.org/Sk5eZ8cZ    [ raw code | fork ]

Plain Text, pasted on Dec 19:
Exact Audio Copy V1.3 from 2. September 2016

EAC extraction logfile from 6. December 2018, 21:02

David Bowie / Glass Spider CD1

Used drive  : PLEXTOR BD-R  PX-B950SA   Adapter: 1  ID: 1

Read mode               : Secure
Utilize accurate stream : Yes
Defeat audio cache      : Yes
Make use of C2 pointers : No

Read offset correction                      : 6
Overread into Lead-In and Lead-Out          : No
Fill up missing offset samples with silence : Yes
Delete leading and trailing silent blocks   : No
Null samples used in CRC calculations       : Yes
Used interface                              : Native Win32 interface for Win NT & 2000

Used output format : Internal WAV Routines
Sample format      : 44.100 Hz; 16 Bit; Stereo


TOC of the extracted CD

     Track |   Start  |  Length  | Start sector | End sector 
    ---------------------------------------------------------
        1  |  0:00.00 |  3:51.64 |         0    |    17388   
        2  |  3:51.64 |  5:55.38 |     17389    |    44051   
        3  |  9:47.27 |  4:34.21 |     44052    |    64622   
        4  | 14:21.48 |  4:02.12 |     64623    |    82784   
        5  | 18:23.60 |  7:08.50 |     82785    |   114934   
        6  | 25:32.35 |  7:14.73 |    114935    |   147557   
        7  | 32:47.33 |  4:55.12 |    147558    |   169694   
        8  | 37:42.45 |  3:30.31 |    169695    |   185475   
        9  | 41:13.01 |  5:04.40 |    185476    |   208315   
       10  | 46:17.41 |  4:52.63 |    208316    |   230278   
       11  | 51:10.29 |  6:39.22 |    230279    |   260225   
       12  | 57:49.51 |  3:56.12 |    260226    |   277937   


Range status and errors

Selected range

     Filename C:\David Bowie\2018 Loving The Alien (11CD Box Set Parlophone Records)\1987 Glass Spider 2CD\CD1\David Bowie - Glass Spider CD1.wav

     Peak level 98.2 %
     Extraction speed 7.3 X
     Range quality 100.0 %
     Test CRC 7B7B380A
     Copy CRC 7B7B380A
     Copy OK

No errors occurred

 
AccurateRip summary
 
Track  1  accurately ripped (confidence 14)  [4E217C98]  (AR v2)
Track  2  accurately ripped (confidence 14)  [D4D9585C]  (AR v2)
Track  3  accurately ripped (confidence 14)  [D5045A6B]  (AR v2)
Track  4  accurately ripped (confidence 14)  [1851F46A]  (AR v2)
Track  5  accurately ripped (confidence 14)  [B7D6FED1]  (AR v2)
Track  6  accurately ripped (confidence 14)  [87A6BE37]  (AR v2)
Track  7  accurately ripped (confidence 14)  [A9E165C7]  (AR v2)
Track  8  accurately ripped (confidence 14)  [CF6EC65F]  (AR v2)
Track  9  accurately ripped (confidence 14)  [4839C5ED]  (AR v2)
Track 10  accurately ripped (confidence 14)  [0013F93C]  (AR v2)
Track 11  accurately ripped (confidence 14)  [87D95CD3]  (AR v2)
Track 12  accurately ripped (confidence 14)  [1B4195F3]  (AR v2)
 
All tracks accurately ripped

End of status report

---- CUETools DB Plugin V2.1.6

[CTDB TOCID: 8I8.67fnVd3gKOz0MV0uKWkQEiY-] found
Submit result: 8I8.67fnVd3gKOz0MV0uKWkQEiY- has been confirmed
Track | CTDB Status
  1   | (66/66) Accurately ripped
  2   | (66/66) Accurately ripped
  3   | (66/66) Accurately ripped
  4   | (66/66) Accurately ripped
  5   | (66/66) Accurately ripped
  6   | (66/66) Accurately ripped
  7   | (66/66) Accurately ripped
  8   | (66/66) Accurately ripped
  9   | (66/66) Accurately ripped
 10   | (66/66) Accurately ripped
 11   | (66/66) Accurately ripped
 12   | (66/66) Accurately ripped


==== Log checksum 64EEE82E376B6F2D731078EF0EF5D2E6E5EBBBE925C5B0B5B70F56D794C1C5B5 ====



Create a new paste based on this one


Comments: