[ create a new paste ] login | about

Link: http://codepad.org/SsPfbOUI    [ raw code | fork ]

Plain Text, pasted on Nov 30:
foobar2000 1.3.17 / Dynamic Range Meter 1.1.1
log date: 2018-11-30 09:27:44

--------------------------------------------------------------------------------
Analyzed: Mark Knopfler / Down The Road Wherever
--------------------------------------------------------------------------------

DR         Peak         RMS     Duration Track
--------------------------------------------------------------------------------
DR11      -1.37 dB   -14.45 dB      5:56 01-Trapper Man
DR12      -0.33 dB   -14.44 dB      5:31 02-Back On The Dance Floor
DR11      -2.98 dB   -16.82 dB      4:16 03-Nobody's Child
DR13      -0.35 dB   -15.17 dB      5:15 04-Nobody Does That
DR12      -0.15 dB   -14.31 dB      5:38 05-Good On You Son
DR11      -0.67 dB   -16.22 dB      5:02 06-Floating Away
DR13      -0.29 dB   -14.75 dB      6:17 07-One Song At A Time
DR13      -0.86 dB   -15.59 dB      6:00 08-Heavy Up
DR12      -0.70 dB   -15.27 dB      4:35 09-Slow Learner
DR13      -0.24 dB   -14.56 dB      5:12 10-Just A Boy Away From Home
DR12      -0.75 dB   -15.51 dB      5:36 11-My Bacon Roll
DR13      -1.48 dB   -18.11 dB      4:13 12-When You Leave
DR12      -3.87 dB   -18.59 dB      2:56 13-Matchstick Man
--------------------------------------------------------------------------------

Number of tracks:  13
Official DR value: DR12

Samplerate:        192000 Hz
Channels:          2
Bits per sample:   24
Bitrate:           5412 kbps
Codec:             FLAC
================================================================================




Create a new paste based on this one


Comments: