[ create a new paste ] login | about

Link: http://codepad.org/StsR7dxh    [ raw code | fork ]

Plain Text, pasted on Sep 17:
X Lossless Decoder version 20120226 (139.1)

XLD extraction logfile from 2012-03-29 21:43:35 +0300

Perry Como / Love songs

Used drive : MATSHITA DVD-R   UJ-898 (revision HC09)

Ripper mode             : XLD Secure Ripper
Disable audio cache     : OK for the drive with a cache less than 1375KiB
Make use of C2 pointers : NO
Read offset correction  : 102
Max retry count         : 20
Gap status              : Analyzed, Appended

TOC of the extracted CD
     Track |   Start  |  Length  | Start sector | End sector 
    ---------------------------------------------------------
        1  | 00:00:00 | 02:44:38 |         0    |    12337   
        2  | 02:44:38 | 03:31:21 |     12338    |    28183   
        3  | 06:15:59 | 03:15:65 |     28184    |    42873   
        4  | 09:31:49 | 02:23:04 |     42874    |    53602   
        5  | 11:54:53 | 02:29:38 |     53603    |    64815   
        6  | 14:24:16 | 02:42:40 |     64816    |    77005   
        7  | 17:06:56 | 03:06:52 |     77006    |    91007   
        8  | 20:13:33 | 02:41:25 |     91008    |   103107   
        9  | 22:54:58 | 02:44:15 |    103108    |   115422   
       10  | 25:38:73 | 04:31:50 |    115423    |   135797   
       11  | 30:10:48 | 04:30:09 |    135798    |   156056   
       12  | 34:40:57 | 03:16:17 |    156057    |   170773   
       13  | 37:56:74 | 03:33:52 |    170774    |   186800   
       14  | 41:30:51 | 03:17:00 |    186801    |   201575   
       15  | 44:47:51 | 03:18:48 |    201576    |   216473   
       16  | 48:06:24 | 03:20:51 |    216474    |   231524   

AccurateRip Summary
    Disc not found in AccurateRip DB.

All Tracks
    Filename : /Users/macuser/Music/myRips/perry como love songs(2003)/01 Perry Como - Love songs.flac
    Album gain             : -6.74 dB
    Peak                   : 0.956573
    CRC32 hash (test run)  : EE91DBFA
    CRC32 hash             : EE91DBFA
    CRC32 hash (skip zero) : 205934E4
    Statistics
        Read error                           : 0
        Jitter error (maybe fixed)           : 0
        Retry sector count                   : 0
        Damaged sector count                 : 0

Track 01
    Pre-gap length : 00:02:00

    Track gain             : -7.61 dB
    Peak                   : 0.956573
    CRC32 hash (test run)  : 18C6439C
    CRC32 hash             : 18C6439C
    CRC32 hash (skip zero) : DCD3570E
    AccurateRip signature  : AE3C5954
        ->Track not present in AccurateRip database.
    Statistics
        Read error                           : 0
        Jitter error (maybe fixed)           : 0
        Retry sector count                   : 0
        Damaged sector count                 : 0

Track 02
    Pre-gap length : 00:01:45

    Track gain             : -7.13 dB
    Peak                   : 0.910461
    CRC32 hash (test run)  : 1484A49F
    CRC32 hash             : 1484A49F
    CRC32 hash (skip zero) : 285B5D18
    AccurateRip signature  : 918D7075
        ->Track not present in AccurateRip database.
    Statistics
        Read error                           : 0
        Jitter error (maybe fixed)           : 0
        Retry sector count                   : 0
        Damaged sector count                 : 0

Track 03
    Pre-gap length : 00:01:44

    Track gain             : -8.61 dB
    Peak                   : 0.932037
    CRC32 hash (test run)  : 8D571695
    CRC32 hash             : 8D571695
    CRC32 hash (skip zero) : 17396BF5
    AccurateRip signature  : 3CEA4DDA
        ->Track not present in AccurateRip database.
    Statistics
        Read error                           : 0
        Jitter error (maybe fixed)           : 0
        Retry sector count                   : 0
        Damaged sector count                 : 0

Track 04
    Pre-gap length : 00:01:44

    Track gain             : -7.54 dB
    Peak                   : 0.918854
    CRC32 hash (test run)  : B8979DB6
    CRC32 hash             : B8979DB6
    CRC32 hash (skip zero) : FC695AFE
    AccurateRip signature  : A7AAEA48
        ->Track not present in AccurateRip database.
    Statistics
        Read error                           : 0
        Jitter error (maybe fixed)           : 0
        Retry sector count                   : 0
        Damaged sector count                 : 0

Track 05
    Pre-gap length : 00:01:44

    Track gain             : -6.37 dB
    Peak                   : 0.928619
    CRC32 hash (test run)  : B1EEC8AB
    CRC32 hash             : B1EEC8AB
    CRC32 hash (skip zero) : 1A614633
    AccurateRip signature  : D5CE8EDC
        ->Track not present in AccurateRip database.
    Statistics
        Read error                           : 0
        Jitter error (maybe fixed)           : 0
        Retry sector count                   : 0
        Damaged sector count                 : 0

Track 06
    Pre-gap length : 00:01:44

    Track gain             : -7.63 dB
    Peak                   : 0.944061
    CRC32 hash (test run)  : 1A1E40D4
    CRC32 hash             : 1A1E40D4
    CRC32 hash (skip zero) : 9F529A2F
    AccurateRip signature  : 0ED88C99
        ->Track not present in AccurateRip database.
    Statistics
        Read error                           : 0
        Jitter error (maybe fixed)           : 0
        Retry sector count                   : 0
        Damaged sector count                 : 0

Track 07
    Pre-gap length : 00:01:44

    Track gain             : -6.45 dB
    Peak                   : 0.830963
    CRC32 hash (test run)  : A93A4C8E
    CRC32 hash             : A93A4C8E
    CRC32 hash (skip zero) : D3D3D969
    AccurateRip signature  : B9ABFB15
        ->Track not present in AccurateRip database.
    Statistics
        Read error                           : 0
        Jitter error (maybe fixed)           : 0
        Retry sector count                   : 0
        Damaged sector count                 : 0

Track 08
    Pre-gap length : 00:01:44

    Track gain             : -6.51 dB
    Peak                   : 0.879333
    CRC32 hash (test run)  : 80A653A5
    CRC32 hash             : 80A653A5
    CRC32 hash (skip zero) : DA2C5117
    AccurateRip signature  : 482D140C
        ->Track not present in AccurateRip database.
    Statistics
        Read error                           : 0
        Jitter error (maybe fixed)           : 0
        Retry sector count                   : 0
        Damaged sector count                 : 0

Track 09
    Pre-gap length : 00:01:44

    Track gain             : -6.77 dB
    Peak                   : 0.941772
    CRC32 hash (test run)  : 0B5CEFE1
    CRC32 hash             : 0B5CEFE1
    CRC32 hash (skip zero) : EFA38FFC
    AccurateRip signature  : 06A808EA
        ->Track not present in AccurateRip database.
    Statistics
        Read error                           : 0
        Jitter error (maybe fixed)           : 0
        Retry sector count                   : 0
        Damaged sector count                 : 0

Track 10
    Pre-gap length : 00:01:44

    Track gain             : -5.69 dB
    Peak                   : 0.941345
    CRC32 hash (test run)  : 48F4C7F6
    CRC32 hash             : 48F4C7F6
    CRC32 hash (skip zero) : F0A03285
    AccurateRip signature  : 4C273B49
        ->Track not present in AccurateRip database.
    Statistics
        Read error                           : 0
        Jitter error (maybe fixed)           : 0
        Retry sector count                   : 0
        Damaged sector count                 : 0

Track 11
    Pre-gap length : 00:01:44

    Track gain             : -4.12 dB
    Peak                   : 0.819641
    CRC32 hash (test run)  : D87B7937
    CRC32 hash             : D87B7937
    CRC32 hash (skip zero) : DA13A480
    AccurateRip signature  : 0FC2E50F
        ->Track not present in AccurateRip database.
    Statistics
        Read error                           : 0
        Jitter error (maybe fixed)           : 0
        Retry sector count                   : 0
        Damaged sector count                 : 0

Track 12
    Pre-gap length : 00:01:44

    Track gain             : -6.90 dB
    Peak                   : 0.851624
    CRC32 hash (test run)  : D9D0A754
    CRC32 hash             : D9D0A754
    CRC32 hash (skip zero) : ED381CD6
    AccurateRip signature  : B21CCB70
        ->Track not present in AccurateRip database.
    Statistics
        Read error                           : 0
        Jitter error (maybe fixed)           : 0
        Retry sector count                   : 0
        Damaged sector count                 : 0

Track 13
    Pre-gap length : 00:01:44

    Track gain             : -5.23 dB
    Peak                   : 0.859589
    CRC32 hash (test run)  : A91EC904
    CRC32 hash             : A91EC904
    CRC32 hash (skip zero) : E078658E
    AccurateRip signature  : F86D0E5C
        ->Track not present in AccurateRip database.
    Statistics
        Read error                           : 0
        Jitter error (maybe fixed)           : 0
        Retry sector count                   : 0
        Damaged sector count                 : 0

Track 14
    Pre-gap length : 00:01:44

    Track gain             : -5.51 dB
    Peak                   : 0.874176
    CRC32 hash (test run)  : D6E2A1E4
    CRC32 hash             : D6E2A1E4
    CRC32 hash (skip zero) : 8BD47D40
    AccurateRip signature  : 272D69D7
        ->Track not present in AccurateRip database.
    Statistics
        Read error                           : 0
        Jitter error (maybe fixed)           : 0
        Retry sector count                   : 0
        Damaged sector count                 : 0

Track 15
    Pre-gap length : 00:01:44

    Track gain             : -5.37 dB
    Peak                   : 0.948608
    CRC32 hash (test run)  : C2B3A05E
    CRC32 hash             : C2B3A05E
    CRC32 hash (skip zero) : 94DBEE3C
    AccurateRip signature  : 4F0BE360
        ->Track not present in AccurateRip database.
    Statistics
        Read error                           : 0
        Jitter error (maybe fixed)           : 0
        Retry sector count                   : 0
        Damaged sector count                 : 0

Track 16
    Pre-gap length : 00:01:45

    Track gain             : -6.04 dB
    Peak                   : 0.915588
    CRC32 hash (test run)  : C9E7D858
    CRC32 hash             : C9E7D858
    CRC32 hash (skip zero) : D55E2362
    AccurateRip signature  : 843C66E1
        ->Track not present in AccurateRip database.
    Statistics
        Read error                           : 0
        Jitter error (maybe fixed)           : 0
        Retry sector count                   : 0
        Damaged sector count                 : 0

No errors occurred

End of status report



Create a new paste based on this one


Comments: