[ create a new paste ] login | about

Link: http://codepad.org/StwSWGZ5    [ raw code | fork ]

Plain Text, pasted on Mar 24:
foobar2000 1.5 / Dynamic Range Meter 1.1.1
log date: 2020-03-24 19:03:34

--------------------------------------------------------------------------------
Analyzed: Linda Ronstadt / Heart Like A Wheel
--------------------------------------------------------------------------------

DR         Peak         RMS     Duration Track
--------------------------------------------------------------------------------
DR12      -0.05 dB   -15.18 dB      3:39 01-You’re No Good
DR13      -0.21 dB   -15.60 dB      3:25 02-It Doesn’t Matter Anymore
DR14      -1.48 dB   -17.47 dB      3:11 03-Faithless Love
DR11      -1.72 dB   -14.94 dB      3:50 04-Dark End Of The Street
DR12      -3.57 dB   -20.64 dB      3:07 05-Heart Like A Wheel
DR11      -1.52 dB   -14.23 dB      2:04 06-When Will I Be Loved
DR12      -0.12 dB   -15.70 dB      2:59 07-Willing
DR13      -0.05 dB   -15.53 dB      2:43 08-I Can’t Help It (If I’m Still In Love With You)
DR11      -3.49 dB   -17.35 dB      3:07 09-Keep Me From Blowing Away
DR13      -0.05 dB   -15.73 dB      3:06 10-You Can Close Your Eyes
--------------------------------------------------------------------------------

Number of tracks:  10
Official DR value: DR12

Samplerate:        96000 Hz
Channels:          2
Bits per sample:   24
Bitrate:           2853 kbps
Codec:             FLAC
================================================================================




Create a new paste based on this one


Comments: