[ create a new paste ] login | about

Link: http://codepad.org/T0K6aGK9    [ raw code | fork ]

Plain Text, pasted on Aug 9:
X Lossless Decoder version 20181019 (151.1)

XLD extraction logfile from 2019-03-29 09:25:26 -0400

Sarah Vaughan / Live In Japan

Used drive : MATSHITA DVD-R   UJ-898 (revision HE13)
Media type : Pressed CD

Ripper mode             : XLD Secure Ripper
Disable audio cache     : OK for the drive with a cache less than 1375KiB
Make use of C2 pointers : NO
Read offset correction  : 102
Max retry count         : 100
Gap status              : Analyzed, Appended (except HTOA)

TOC of the extracted CD
     Track |   Start  |  Length  | Start sector | End sector 
    ---------------------------------------------------------
        1  | 00:00:37 | 01:54:35 |        37    |     8621   
        2  | 01:54:72 | 05:16:53 |      8622    |    32374   
        3  | 07:11:50 | 01:51:00 |     32375    |    40699   
        4  | 09:02:50 | 05:44:00 |     40700    |    66499   
        5  | 14:46:50 | 04:35:00 |     66500    |    87124   
        6  | 19:21:50 | 01:38:00 |     87125    |    94474   
        7  | 20:59:50 | 03:25:00 |     94475    |   109849   
        8  | 24:24:50 | 07:09:00 |    109850    |   142024   
        9  | 31:33:50 | 02:49:00 |    142025    |   154699   
       10  | 34:22:50 | 05:52:00 |    154700    |   181099   
       11  | 40:14:50 | 02:27:02 |    181100    |   192126   
       12  | 42:41:52 | 05:12:73 |    192127    |   215599   
       13  | 47:54:50 | 07:22:40 |    215600    |   248789   
       14  | 55:17:15 | 02:26:07 |    248790    |   259746   

AccurateRip Summary (DiscID: 001bfb2d-0130d517-c60d870e)
    Track 01 : OK (v1+v2, confidence 13/13)
    Track 02 : OK (v1+v2, confidence 13/13)
    Track 03 : OK (v1+v2, confidence 14/14)
    Track 04 : OK (v1+v2, confidence 14/14)
    Track 05 : OK (v1+v2, confidence 14/14)
    Track 06 : OK (v1+v2, confidence 14/14)
    Track 07 : OK (v1+v2, confidence 14/14)
    Track 08 : OK (v1+v2, confidence 14/14)
    Track 09 : OK (v1+v2, confidence 14/14)
    Track 10 : OK (v1+v2, confidence 14/14)
    Track 11 : OK (v1+v2, confidence 14/14)
    Track 12 : OK (v1+v2, confidence 14/14)
    Track 13 : OK (v1+v2, confidence 14/14)
    Track 14 : OK (v1+v2, confidence 14/14)
        ->All tracks accurately ripped.

All Tracks
    Album gain               : 0.33 dB
    Peak                     : 0.804352
    Statistics
        Read error                           : 0
        Jitter error (maybe fixed)           : 0
        Retry sector count                   : 0
        Damaged sector count                 : 0

Track 01
    Filename : /Users/Rips/Sarah Vaughan - Live In Japan (1973) [FLAC]/01 A Foggy Day.flac
    Pre-gap length : 00:02:37

    Track gain               : -4.03 dB
    Peak                     : 0.781982
    CRC32 hash (test run)    : AA3B43C6
    CRC32 hash               : AA3B43C6
    CRC32 hash (skip zero)   : 7FEFA34A
    AccurateRip v1 signature : FF1E0476
    AccurateRip v2 signature : DC59709C
        ->Accurately ripped (v1+v2, confidence 4+9/13)
    Statistics
        Read error                           : 0
        Jitter error (maybe fixed)           : 0
        Retry sector count                   : 0
        Damaged sector count                 : 0

Track 02
    Filename : /Users/Rips/Sarah Vaughan - Live In Japan (1973) [FLAC]/02 Poor Butterfly.flac

    Track gain               : 4.68 dB
    Peak                     : 0.568054
    CRC32 hash (test run)    : 76E76ED3
    CRC32 hash               : 76E76ED3
    CRC32 hash (skip zero)   : D6A19EEA
    AccurateRip v1 signature : 35B96074
    AccurateRip v2 signature : 99216AA3
        ->Accurately ripped (v1+v2, confidence 4+9/13)
    Statistics
        Read error                           : 0
        Jitter error (maybe fixed)           : 0
        Retry sector count                   : 0
        Damaged sector count                 : 0

Track 03
    Filename : /Users/Rips/Sarah Vaughan - Live In Japan (1973) [FLAC]/03 The Lamp Is Low.flac

    Track gain               : -3.12 dB
    Peak                     : 0.761292
    CRC32 hash (test run)    : 656F7080
    CRC32 hash               : 656F7080
    CRC32 hash (skip zero)   : 976C6C41
    AccurateRip v1 signature : 66D12173
    AccurateRip v2 signature : 9BF72058
        ->Accurately ripped (v1+v2, confidence 5+9/14)
    Statistics
        Read error                           : 0
        Jitter error (maybe fixed)           : 0
        Retry sector count                   : 0
        Damaged sector count                 : 0

Track 04
    Filename : /Users/Rips/Sarah Vaughan - Live In Japan (1973) [FLAC]/04 'Round Midnight.flac

    Track gain               : 2.45 dB
    Peak                     : 0.624023
    CRC32 hash (test run)    : CAE71032
    CRC32 hash               : CAE71032
    CRC32 hash (skip zero)   : 65FF8D05
    AccurateRip v1 signature : B5EACF4B
    AccurateRip v2 signature : 883B30BC
        ->Accurately ripped (v1+v2, confidence 5+9/14)
    Statistics
        Read error                           : 0
        Jitter error (maybe fixed)           : 0
        Retry sector count                   : 0
        Damaged sector count                 : 0

Track 05
    Filename : /Users/Rips/Sarah Vaughan - Live In Japan (1973) [FLAC]/05 Willow Weep For Me.flac

    Track gain               : 0.98 dB
    Peak                     : 0.738037
    CRC32 hash (test run)    : 40167D0B
    CRC32 hash               : 40167D0B
    CRC32 hash (skip zero)   : 32EAC0A9
    AccurateRip v1 signature : 824A162E
    AccurateRip v2 signature : 66C26BFC
        ->Accurately ripped (v1+v2, confidence 5+9/14)
    Statistics
        Read error                           : 0
        Jitter error (maybe fixed)           : 0
        Retry sector count                   : 0
        Damaged sector count                 : 0

Track 06
    Filename : /Users/Rips/Sarah Vaughan - Live In Japan (1973) [FLAC]/06 There Will Never Be Another You.flac

    Track gain               : -4.36 dB
    Peak                     : 0.804352
    CRC32 hash (test run)    : D6BFB1C8
    CRC32 hash               : D6BFB1C8
    CRC32 hash (skip zero)   : 54FCC5B9
    AccurateRip v1 signature : 4E9A0054
    AccurateRip v2 signature : 3124A25A
        ->Accurately ripped (v1+v2, confidence 5+9/14)
    Statistics
        Read error                           : 0
        Jitter error (maybe fixed)           : 0
        Retry sector count                   : 0
        Damaged sector count                 : 0

Track 07
    Filename : /Users/Rips/Sarah Vaughan - Live In Japan (1973) [FLAC]/07 Misty.flac

    Track gain               : 1.38 dB
    Peak                     : 0.787354
    CRC32 hash (test run)    : CD609814
    CRC32 hash               : CD609814
    CRC32 hash (skip zero)   : 3F1D1EB1
    AccurateRip v1 signature : 07DECA98
    AccurateRip v2 signature : AE94826A
        ->Accurately ripped (v1+v2, confidence 5+9/14)
    Statistics
        Read error                           : 0
        Jitter error (maybe fixed)           : 0
        Retry sector count                   : 0
        Damaged sector count                 : 0

Track 08
    Filename : /Users/Rips/Sarah Vaughan - Live In Japan (1973) [FLAC]/08 Wave.flac

    Track gain               : 5.23 dB
    Peak                     : 0.586395
    CRC32 hash (test run)    : C0A49A93
    CRC32 hash               : C0A49A93
    CRC32 hash (skip zero)   : F50AF90D
    AccurateRip v1 signature : 9D71E5BD
    AccurateRip v2 signature : CC08FDFE
        ->Accurately ripped (v1+v2, confidence 5+9/14)
    Statistics
        Read error                           : 0
        Jitter error (maybe fixed)           : 0
        Retry sector count                   : 0
        Damaged sector count                 : 0

Track 09
    Filename : /Users/Rips/Sarah Vaughan - Live In Japan (1973) [FLAC]/09 Like Someone In Love.flac

    Track gain               : -2.99 dB
    Peak                     : 0.776978
    CRC32 hash (test run)    : EB2B1813
    CRC32 hash               : EB2B1813
    CRC32 hash (skip zero)   : 7541E082
    AccurateRip v1 signature : 5B090776
    AccurateRip v2 signature : A5390B97
        ->Accurately ripped (v1+v2, confidence 5+9/14)
    Statistics
        Read error                           : 0
        Jitter error (maybe fixed)           : 0
        Retry sector count                   : 0
        Damaged sector count                 : 0

Track 10
    Filename : /Users/Rips/Sarah Vaughan - Live In Japan (1973) [FLAC]/10 My Funny Valentine.flac

    Track gain               : 0.93 dB
    Peak                     : 0.741638
    CRC32 hash (test run)    : 682E99AE
    CRC32 hash               : 682E99AE
    CRC32 hash (skip zero)   : E373870E
    AccurateRip v1 signature : B4102AB7
    AccurateRip v2 signature : CD1D4228
        ->Accurately ripped (v1+v2, confidence 5+9/14)
    Statistics
        Read error                           : 0
        Jitter error (maybe fixed)           : 0
        Retry sector count                   : 0
        Damaged sector count                 : 0

Track 11
    Filename : /Users/Rips/Sarah Vaughan - Live In Japan (1973) [FLAC]/11 All Of Me.flac

    Track gain               : -0.78 dB
    Peak                     : 0.756805
    CRC32 hash (test run)    : 55786C47
    CRC32 hash               : 55786C47
    CRC32 hash (skip zero)   : 6C334B91
    AccurateRip v1 signature : 19AAFBA0
    AccurateRip v2 signature : 588A4529
        ->Accurately ripped (v1+v2, confidence 5+9/14)
    Statistics
        Read error                           : 0
        Jitter error (maybe fixed)           : 0
        Retry sector count                   : 0
        Damaged sector count                 : 0

Track 12
    Filename : /Users/Rips/Sarah Vaughan - Live In Japan (1973) [FLAC]/12 (Where Do I Begin) Love Story.flac

    Track gain               : 3.94 dB
    Peak                     : 0.647003
    CRC32 hash (test run)    : 8D035E76
    CRC32 hash               : 8D035E76
    CRC32 hash (skip zero)   : 11601895
    AccurateRip v1 signature : 8D76D62A
    AccurateRip v2 signature : 4DC55A6F
        ->Accurately ripped (v1+v2, confidence 5+9/14)
    Statistics
        Read error                           : 0
        Jitter error (maybe fixed)           : 0
        Retry sector count                   : 0
        Damaged sector count                 : 0

Track 13
    Filename : /Users/Rips/Sarah Vaughan - Live In Japan (1973) [FLAC]/13 Over The Rainbow.flac

    Track gain               : 1.89 dB
    Peak                     : 0.724731
    CRC32 hash (test run)    : 146A43DF
    CRC32 hash               : 146A43DF
    CRC32 hash (skip zero)   : 250B65A4
    AccurateRip v1 signature : D5137F4A
    AccurateRip v2 signature : 732C9162
        ->Accurately ripped (v1+v2, confidence 5+9/14)
    Statistics
        Read error                           : 0
        Jitter error (maybe fixed)           : 0
        Retry sector count                   : 0
        Damaged sector count                 : 0

Track 14
    Filename : /Users/Rips/Sarah Vaughan - Live In Japan (1973) [FLAC]/14 I Could Write A Book.flac

    Track gain               : 2.60 dB
    Peak                     : 0.717621
    CRC32 hash (test run)    : 0DFE9E54
    CRC32 hash               : 0DFE9E54
    CRC32 hash (skip zero)   : A6A2D184
    AccurateRip v1 signature : A883663B
    AccurateRip v2 signature : 14ED9208
        ->Accurately ripped (v1+v2, confidence 5+9/14)
    Statistics
        Read error                           : 0
        Jitter error (maybe fixed)           : 0
        Retry sector count                   : 0
        Damaged sector count                 : 0

No errors occurred

End of status report

-----BEGIN XLD SIGNATURE-----
kTPnoQwV.IAgmxhDckWsqzz1TNoypA4lndnMs6Kiz_X8hngCrSyUyGxdq0vYCLIF6q4LgnXm3gG0Gv_wmHI7MxQFdh9ouDj_KMbsiXq
-----END XLD SIGNATURE-----



Create a new paste based on this one


Comments: