[ create a new paste ] login | about

Link: http://codepad.org/T0fglU7n    [ raw code | fork ]

Plain Text, pasted on Dec 23:
[CUETools log; Date: 12/23/2018 7:48:16 AM; Version: 2.1.5]
[CTDB TOCID: PQs5TclA6WT_t12Y_LXq0l1330M-] found.
Track | CTDB Status
  1   | (86/87) Accurately ripped
  2   | (86/87) Accurately ripped
  3   | (86/87) Accurately ripped
  4   | (86/87) Accurately ripped
  5   | (86/87) Accurately ripped
  6   | (86/87) Accurately ripped
  7   | (86/87) Accurately ripped
  8   | (86/87) Accurately ripped
  9   | (86/87) Accurately ripped
 10   | (86/87) Accurately ripped
 11   | (86/87) Accurately ripped
 12   | (86/87) Accurately ripped
 13   | (86/87) Accurately ripped
 14   | (86/87) Accurately ripped
 15   | (86/87) Accurately ripped
 16   | (86/87) Accurately ripped
 17   | (86/87) Accurately ripped
 18   | (86/87) Accurately ripped
 19   | (86/87) Accurately ripped
 20   | (85/87) Accurately ripped
[AccurateRip ID: 003084ac-02b91574-170e0914] found.
Track   [  CRC   |   V2   ] Status
 01     [c85fabbd|c2dd987b] (0+2/2) Accurately ripped
 02     [58740862|e3f53f40] (0+2/2) Accurately ripped
 03     [9e7015b0|9bcb1de1] (0+2/2) Accurately ripped
 04     [9b2cc3c9|68032eea] (0+2/2) Accurately ripped
 05     [1e54901f|881d1f62] (0+2/2) Accurately ripped
 06     [95cab60c|a9cc154d] (0+2/2) Accurately ripped
 07     [9bf40547|ed0bf440] (0+2/2) Accurately ripped
 08     [7a72935d|f9130cc5] (0+2/2) Accurately ripped
 09     [f9faa226|2b3d1be4] (0+2/2) Accurately ripped
 10     [40aafd91|c22b2186] (0+2/2) Accurately ripped
 11     [88f8d843|50b77046] (0+2/2) Accurately ripped
 12     [cdac8fd9|2ed00d5d] (0+2/2) Accurately ripped
 13     [0424da9b|9968782d] (0+2/2) Accurately ripped
 14     [446ca706|3d97637a] (0+2/2) Accurately ripped
 15     [508aee18|d2df48b1] (0+2/2) Accurately ripped
 16     [d64e4756|19c479d8] (0+2/2) Accurately ripped
 17     [c7e94f6d|8460f47d] (0+2/2) Accurately ripped
 18     [b12aa415|9da50924] (0+2/2) Accurately ripped
 19     [f1ee661a|60210133] (0+2/2) Accurately ripped
 20     [ab29e823|1b2ef0b4] (0+2/2) Accurately ripped

Track Peak [ CRC32  ] [W/O NULL] [  LOG   ]
 --   99.9 [9354EF5F] [E0ADD554]   CRC32   
 01   76.8 [F6579CFD] [6C66C607]           
 02   77.1 [DEFAF53E] [C944E664]           
 03   77.0 [AA3AEB86] [2BF1E9FF]           
 04   70.0 [30784C35] [0A281A1F]           
 05   72.7 [445E7357] [FDB246D9]           
 06   76.4 [B42D0F7D] [E47B2FB6]           
 07   78.5 [04EC4DEF] [948FD93A]           
 08   71.9 [87B22A53] [1F41CD0D]           
 09   70.3 [A8586A2A] [D374B74B]           
 10   72.9 [D6FB6687] [63BA2D9E]           
 11   55.2 [0B02BBA3] [F3393FBC]           
 12   99.8 [7B8FDA87] [A44DFF87]           
 13   78.2 [17332BD5] [6526E857]           
 14   69.5 [6B17BA86] [2A56549F]           
 15   69.8 [554DB6D2] [0B1FAD21]           
 16   84.9 [4CBC92DB] [1DCC2E36]           
 17   96.2 [53D05F96] [F645D24C]           
 18   99.9 [8F393EC2] [2E9B6118]           
 19   98.5 [4B585965] [4B304B3A]           
 20   99.8 [31514132] [207822BA]           



Create a new paste based on this one


Comments: