[ create a new paste ] login | about

Link: http://codepad.org/T0xHMwS1    [ raw code | fork ]

Plain Text, pasted on Dec 29:
Exact Audio Copy V1.3 from 2. September 2016

EAC extraction logfile from 18. December 2018, 10:50

Kate Bush / The Dreaming

Used drive  : PLEXTOR BD-R  PX-B950SA   Adapter: 1  ID: 1

Read mode               : Secure
Utilize accurate stream : Yes
Defeat audio cache      : Yes
Make use of C2 pointers : No

Read offset correction                      : 6
Overread into Lead-In and Lead-Out          : No
Fill up missing offset samples with silence : Yes
Delete leading and trailing silent blocks   : No
Null samples used in CRC calculations       : Yes
Used interface                              : Native Win32 interface for Win NT & 2000

Used output format : Internal WAV Routines
Sample format      : 44.100 Hz; 16 Bit; Stereo


TOC of the extracted CD

     Track |   Start  |  Length  | Start sector | End sector 
    ---------------------------------------------------------
        1  |  0:00.00 |  3:30.11 |         0    |    15760   
        2  |  3:30.11 |  3:24.67 |     15761    |    31127   
        3  |  6:55.03 |  5:25.59 |     31128    |    55561   
        4  | 12:20.62 |  3:54.41 |     55562    |    73152   
        5  | 16:15.28 |  3:19.72 |     73153    |    88149   
        6  | 19:35.25 |  4:40.66 |     88150    |   109215   
        7  | 24:16.16 |  5:22.17 |    109216    |   133382   
        8  | 29:38.33 |  4:28.52 |    133383    |   153534   
        9  | 34:07.10 |  3:49.18 |    153535    |   170727   
       10  | 37:56.28 |  5:27.48 |    170728    |   195300   


Range status and errors

Selected range

     Filename C:\Kate Bush\2018 Remastered Part I (7CD Box Set Parlophone Records)\1982 The Dreaming\Kate Bush - The Dreaming.wav

     Peak level 100.0 %
     Extraction speed 7.0 X
     Range quality 100.0 %
     Test CRC 4D045F86
     Copy CRC 4D045F86
     Copy OK

No errors occurred

 
AccurateRip summary
 
Track  1  not present in database
Track  2  not present in database
Track  3  not present in database
Track  4  not present in database
Track  5  not present in database
Track  6  not present in database
Track  7  not present in database
Track  8  not present in database
Track  9  not present in database
Track 10  not present in database
 
None of the tracks are present in the AccurateRip database

End of status report

---- CUETools DB Plugin V2.1.6

[CTDB TOCID: rdE8SbPmBRFTNY_uI2q47xVEHUs-] found
Submit result: rdE8SbPmBRFTNY_uI2q47xVEHUs- has been confirmed
Track | CTDB Status
  1   | (75/75) Accurately ripped
  2   | (75/75) Accurately ripped
  3   | (75/75) Accurately ripped
  4   | (75/75) Accurately ripped
  5   | (75/75) Accurately ripped
  6   | (75/75) Accurately ripped
  7   | (75/75) Accurately ripped
  8   | (75/75) Accurately ripped
  9   | (75/75) Accurately ripped
 10   | (75/75) Accurately ripped


==== Log checksum 0BEC68E4AEB76E3F01D3894965ED360A42B3E4A2C0086F948DC17BC7785ECE14 ====



Create a new paste based on this one


Comments: