[ create a new paste ] login | about

Link: http://codepad.org/T2XAHJFu    [ raw code | fork ]

Plain Text, pasted on Feb 28:
Exact Audio Copy V0.99 prebeta 5 from 4. May 2009

EAC extraction logfile from 18. August 2009, 14:20

The Smiths / Singles Box (Disc10)

Used drive  : PLEXTOR DVDR   PX-716A   Adapter: 3  ID: 0

Read mode               : Secure
Utilize accurate stream : Yes
Defeat audio cache      : Yes
Make use of C2 pointers : No

Read offset correction                      : 30
Overread into Lead-In and Lead-Out          : Yes
Fill up missing offset samples with silence : Yes
Delete leading and trailing silent blocks   : No
Null samples used in CRC calculations       : Yes
Used interface                              : Native Win32 interface for Win NT & 2000
Gap handling                                : Appended to previous track

Used output format              : User Defined Encoder
Selected bitrate                : 128 kBit/s
Quality                         : High
Add ID3 tag                     : No
Command line compressor         : C:\Program Files\FLAC\flac.exe
Additional command line options : -8 -V -T "ARTIST=%a" -T "TITLE=%t" -T "ALBUM=%g" -T "DATE=%y" -T "TRACKNUMBER=%n" -T "GENRE=%m" -T "COMMENT=EAC FLAC -8" %s


TOC of the extracted CD

     Track |   Start  |  Length  | Start sector | End sector 
    ---------------------------------------------------------
        1  |  0:00.00 |  4:59.00 |         0    |    22424   
        2  |  4:59.00 |  2:36.74 |     22425    |    34198   
        3  |  7:35.74 |  2:54.50 |     34199    |    47298   
        4  | 10:30.49 |  2:11.66 |     47299    |    57189   
        5  | 12:42.40 |  5:48.30 |     57190    |    83319   


Track  1

     Filename C:\Lossless\The Smiths - Singles Box (2009) [FLAC] (12CD Boxset)\Disc10\01 - That Joke Isn't Funny Anymore.wav

     Pre-gap length  0:00:02.00

     Peak level 98.6 %
     Track quality 100.0 %
     Test CRC FCF7667D
     Copy CRC FCF7667D
     Track not present in AccurateRip database
     Copy OK

Track  2

     Filename C:\Lossless\The Smiths - Singles Box (2009) [FLAC] (12CD Boxset)\Disc10\02 - Nowhere Fast (Live).wav

     Pre-gap length  0:00:01.05

     Peak level 98.8 %
     Track quality 100.0 %
     Test CRC BCA0A9A7
     Copy CRC BCA0A9A7
     Track not present in AccurateRip database
     Copy OK

Track  3

     Filename C:\Lossless\The Smiths - Singles Box (2009) [FLAC] (12CD Boxset)\Disc10\03 - Stretch Out And Wait (Live).wav

     Pre-gap length  0:00:01.04

     Peak level 98.8 %
     Track quality 99.9 %
     Test CRC A5D672DF
     Copy CRC A5D672DF
     Track not present in AccurateRip database
     Copy OK

Track  4

     Filename C:\Lossless\The Smiths - Singles Box (2009) [FLAC] (12CD Boxset)\Disc10\04 - Shakespeare's Sister (Live).wav

     Pre-gap length  0:00:01.43

     Peak level 98.8 %
     Track quality 100.0 %
     Test CRC D69521C4
     Copy CRC D69521C4
     Track not present in AccurateRip database
     Copy OK

Track  5

     Filename C:\Lossless\The Smiths - Singles Box (2009) [FLAC] (12CD Boxset)\Disc10\05 - Meat Is Murder (Live).wav

     Pre-gap length  0:00:00.58

     Peak level 98.8 %
     Track quality 100.0 %
     Test CRC 8215A851
     Copy CRC 8215A851
     Track not present in AccurateRip database
     Copy OK


None of the tracks are present in the AccurateRip database

No errors occurred

End of status report



Create a new paste based on this one


Comments: