[ create a new paste ] login | about

Link: http://codepad.org/T37NC9uw    [ raw code | fork ]

Plain Text, pasted on Feb 29:
Exact Audio Copy V1.0 beta 3 from 29. August 2011

EAC extraction logfile from 8. October 2013, 9:12

The Shadows / The Shadows The Early Years. Their Complete Studio Recordings 1959-1966 CD5

Used drive  : ATAPI   iHAS124   B   Adapter: 2  ID: 0

Read mode               : Secure
Utilize accurate stream : Yes
Defeat audio cache      : Yes
Make use of C2 pointers : No

Read offset correction                      : 6
Overread into Lead-In and Lead-Out          : No
Fill up missing offset samples with silence : Yes
Delete leading and trailing silent blocks   : No
Null samples used in CRC calculations       : Yes
Used interface                              : Native Win32 interface for Win NT & 2000

Used output format              : User Defined Encoder
Selected bitrate                : 1024 kBit/s
Quality                         : High
Add ID3 tag                     : No
Command line compressor         : C:\Program Files (x86)\Exact Audio Copy\FLAC\FLAC.EXE
Additional command line options : -8 -V -T "ARTIST=%artist%" -T "TITLE=%title%" -T "ALBUM=%albumtitle%" -T "DATE=%year%" -T "TRACKNUMBER=%tracknr%" -T "GENRE=%genre%" -T "PERFORMER=%albuminterpret%" -T "COMPOSER=%composer%" %haslyrics%--tag-from-file=LYRICS="%lyricsfile%"%haslyrics% -T "ALBUMARTIST=%albumartist%" -T "DISCNUMBER=%cdnumber%" -T "TOTALDISCS=%totalcds%" -T "TOTALTRACKS=%numtracks%" -T "COMMENT=%comment%" %source% -o %dest%


TOC of the extracted CD

     Track |   Start  |  Length  | Start sector | End sector 
    ---------------------------------------------------------
        1  |  0:00.00 |  2:15.13 |         0    |    10137   
        2  |  2:15.13 |  2:45.15 |     10138    |    22527   
        3  |  5:00.28 |  2:19.47 |     22528    |    32999   
        4  |  7:20.00 |  2:34.65 |     33000    |    44614   
        5  |  9:54.65 |  2:17.28 |     44615    |    54917   
        6  | 12:12.18 |  2:07.34 |     54918    |    64476   
        7  | 14:19.52 |  2:40.06 |     64477    |    76482   
        8  | 16:59.58 |  2:26.53 |     76483    |    87485   
        9  | 19:26.36 |  2:03.28 |     87486    |    96738   
       10  | 21:29.64 |  2:30.65 |     96739    |   108053   
       11  | 24:00.54 |  2:29.63 |    108054    |   119291   
       12  | 26:30.42 |  2:24.15 |    119292    |   130106   
       13  | 28:54.57 |  2:29.72 |    130107    |   141353   
       14  | 31:24.54 |  2:07.44 |    141354    |   150922   
       15  | 33:32.23 |  2:17.13 |    150923    |   161210   
       16  | 35:49.36 |  2:35.02 |    161211    |   172837   
       17  | 38:24.38 |  2:20.22 |    172838    |   183359   
       18  | 40:44.60 |  2:50.15 |    183360    |   196124   
       19  | 43:35.00 |  2:27.56 |    196125    |   207205   
       20  | 46:02.56 |  2:28.16 |    207206    |   218321   
       21  | 48:30.72 |  2:16.37 |    218322    |   228558   
       22  | 50:47.34 |  2:23.69 |    228559    |   239352   
       23  | 53:11.28 |  2:17.37 |    239353    |   249664   
       24  | 55:28.65 |  2:18.23 |    249665    |   260037   
       25  | 57:47.13 |  2:09.49 |    260038    |   269761   
       26  | 59:56.62 |  2:19.58 |    269762    |   280244   
       27  | 62:16.45 |  1:58.32 |    280245    |   289126   
       28  | 64:15.02 |  2:22.00 |    289127    |   299776   
       29  | 66:37.02 |  0:57.26 |    299777    |   304077   
       30  | 67:34.28 |  4:26.49 |    304078    |   324076   
       31  | 72:01.02 |  2:44.31 |    324077    |   336407   
       32  | 74:45.33 |  2:24.60 |    336408    |   347267   


Range status and errors

Selected range

     Filename G:\CD\The Shadows - The Shadows The Early Years CD5.wav

     Peak level 93.2 %
     Extraction speed 6.7 X
     Range quality 100.0 %
     Test CRC 8F20CFFF
     Copy CRC 8F20CFFF
     Copy OK

No errors occurred

 
AccurateRip summary
 
Track  1  not present in database
Track  2  not present in database
Track  3  not present in database
Track  4  not present in database
Track  5  not present in database
Track  6  not present in database
Track  7  not present in database
Track  8  not present in database
Track  9  not present in database
Track 10  not present in database
Track 11  not present in database
Track 12  not present in database
Track 13  not present in database
Track 14  not present in database
Track 15  not present in database
Track 16  not present in database
Track 17  not present in database
Track 18  not present in database
Track 19  not present in database
Track 20  not present in database
Track 21  not present in database
Track 22  not present in database
Track 23  not present in database
Track 24  not present in database
Track 25  not present in database
Track 26  not present in database
Track 27  not present in database
Track 28  not present in database
Track 29  not present in database
Track 30  not present in database
Track 31  not present in database
Track 32  not present in database
 
None of the tracks are present in the AccurateRip database

End of status report

==== Log checksum B6D2B47275B24A58760704C649380DDE17D8FCCEC0357BC492E613788D78A535 ====



Create a new paste based on this one


Comments: