[ create a new paste ] login | about

Link: http://codepad.org/T6lAJoRG    [ raw code | fork ]

Plain Text, pasted on Dec 1:
foobar2000 1.3.16 / Dynamic Range Meter 1.1.1
log date: 2017-11-30 21:11:01

--------------------------------------------------------------------------------
Analyzed: Nirvana / Nevermind (Remastered)
--------------------------------------------------------------------------------

DR         Peak         RMS     Duration Track
--------------------------------------------------------------------------------
DR6       -0.08 dB    -7.82 dB      5:01 01-Smells Like Teen Spirit
DR7       -0.08 dB    -7.77 dB      4:15 02-In Bloom
DR7       -0.09 dB    -8.37 dB      3:39 03-Come As You Are
DR7       -0.08 dB    -7.72 dB      3:04 04-Breed
DR7       -0.09 dB    -8.98 dB      4:17 05-Lithium
DR8       -0.10 dB   -10.24 dB      2:57 06-Polly
DR6       -0.09 dB    -7.97 dB      2:23 07-Territorial Pissings
DR7       -0.09 dB    -7.73 dB      3:44 08-Drain You
DR7       -0.09 dB    -7.80 dB      2:37 09-Lounge Act
DR7       -0.09 dB    -7.63 dB      3:32 10-Stay Away
DR6       -0.05 dB    -7.49 dB      3:16 11-On A Plain
DR8       -0.10 dB    -9.98 dB      3:55 12-Something In The Way
DR7       -0.07 dB    -8.62 dB      6:43 13-Endless, Nameless
--------------------------------------------------------------------------------

Number of tracks:  13
Official DR value: DR7

Samplerate:        96000 Hz
Channels:          2
Bits per sample:   24
Bitrate:           3087 kbps
Codec:             FLAC
================================================================================




Create a new paste based on this one


Comments: