[ create a new paste ] login | about

Link: http://codepad.org/TAjim8vg    [ raw code | fork ]

Plain Text, pasted on Jul 11:
[CUETools log; Date: 7/11/2018 9:34:45 AM; Version: 2.1.5]
[CTDB TOCID: Lx7qMlTGZkco_NclIzJcqIc12os-] found.
Track | CTDB Status
  1   | (106/106) Accurately ripped
  2   | (106/106) Accurately ripped
  3   | (106/106) Accurately ripped
  4   | (106/106) Accurately ripped
  5   | (106/106) Accurately ripped
  6   | (106/106) Accurately ripped
  7   | (106/106) Accurately ripped
  8   | (106/106) Accurately ripped
  9   | (106/106) Accurately ripped
 10   | (105/106) Accurately ripped
[AccurateRip ID: 001c4540-00ded4aa-7711190a] found.
Track   [  CRC   |   V2   ] Status
 01     [e4391d85|e11adb3a] (000+003/113) Accurately ripped
 02     [c1118420|c637e4e7] (000+003/112) Accurately ripped
 03     [77cc3101|9cec50c2] (000+003/114) Accurately ripped
 04     [3a7c44d3|23bff1fb] (000+003/114) Accurately ripped
 05     [90ccf415|61563d9c] (000+003/114) Accurately ripped
 06     [183d7a55|4d0c6684] (000+003/114) Accurately ripped
 07     [b484dd84|156434e6] (000+003/114) Accurately ripped
 08     [def222b1|9777c696] (000+003/113) Accurately ripped
 09     [c0317bde|7a6550f9] (000+003/113) Accurately ripped
 10     [752b5be6|d2c97970] (000+003/111) Accurately ripped
Offsetted by 3:
 01     [e6b4eb62] (002/113) Accurately ripped
 02     [71c2fdec] (002/112) Accurately ripped
 03     [387e823e] (002/114) Accurately ripped
 04     [7cdf228e] (002/114) Accurately ripped
 05     [19e39d2a] (002/114) Accurately ripped
 06     [8cfb3457] (002/114) Accurately ripped
 07     [8d6a209c] (002/114) Accurately ripped
 08     [b21716d7] (002/113) Accurately ripped
 09     [75e6aa3f] (002/113) Accurately ripped
 10     [0288c33f] (002/111) Accurately ripped
Offsetted by 667:
 01     [37e6b89d] (051/113) Accurately ripped
 02     [118df2f9] (051/112) Accurately ripped
 03     [f228de6f] (051/114) Accurately ripped
 04     [a5414f28] (051/114) Accurately ripped
 05     [10791106] (051/114) Accurately ripped
 06     [2159dd43] (051/114) Accurately ripped
 07     [d60dc015] (051/114) Accurately ripped
 08     [9b3d58aa] (051/113) Accurately ripped
 09     [1af5cc8c] (051/113) Accurately ripped
 10     [cbc66eac] (049/111) Accurately ripped
Offsetted by 649:
 01     [efe6527f] (000/113) No match (V2 was not tested)
 02     [2ac6e74d] (000/112) No match (V2 was not tested)
 03     [14a1b0b2] (000/114) No match (V2 was not tested)
 04     [b6af223b] (000/114) No match (V2 was not tested)
 05     [f3ea3029] (000/114) No match (V2 was not tested)
 06     [92c54936] (000/114) No match (V2 was not tested)
 07     [5cddf673] (000/114) No match (V2 was not tested)
 08     [2ae271ab] (000/113) No match (V2 was not tested)
 09     [6bfe547b] (000/113) No match (V2 was not tested)
 10     [9c8fed07] (000/111) No match (V2 was not tested)
Offsetted by 673:
 01     [4716fa41] (000/113) No match (V2 was not tested)
 02     [953b7109] (000/112) No match (V2 was not tested)
 03     [513e47f4] (000/114) No match (V2 was not tested)
 04     [9a95249a] (000/114) No match (V2 was not tested)
 05     [e474980d] (000/114) No match (V2 was not tested)
 06     [6c9eba48] (000/114) No match (V2 was not tested)
 07     [bd79fc62] (000/114) No match (V2 was not tested)
 08     [38462345] (000/113) No match (V2 was not tested)
 09     [1aaff253] (000/113) No match (V2 was not tested)
 10     [3bc4c531] (000/111) No match (V2 was not tested)

Track Peak [ CRC32  ] [W/O NULL] [  LOG   ]
 --  100.0 [A2400B3E] [A246236E]   CRC32   
 01   75.6 [28466889] [748E1319]           
 02   99.9 [89303C27] [AFB95F3F]           
 03  100.0 [18366A64] [E152822F]           
 04   99.9 [9B6FA87E] [0B235085]           
 05   99.9 [BB2E44B4] [D60F0AD3]           
 06  100.0 [6771C93B] [A5345241]           
 07  100.0 [7B3C0CE1] [56EB5559]           
 08   99.9 [150C2BC2] [C0B09D45]           
 09   75.2 [2F706E83] [452C429A]           
 10   99.9 [07CC2FE2] [00F6E1E4]           


[CUETools log; Date: 7/11/2018 9:35:02 AM; Version: 2.1.5]
[CTDB TOCID: yZlnAQz4cvhkEE1INXe3JyuvqZs-] found.
Track | CTDB Status
  1   | (106/107) Accurately ripped
  2   | (106/107) Accurately ripped
  3   | (106/107) Accurately ripped
  4   | (105/107) Accurately ripped
  5   | (106/107) Accurately ripped
  6   | (106/107) Accurately ripped
  7   | (106/107) Accurately ripped
  8   | (106/107) Accurately ripped
  9   | (106/107) Accurately ripped
[AccurateRip ID: 0016464a-009ec129-800ece09] found.
Track   [  CRC   |   V2   ] Status
 01     [0a4d43cf|bd6a2b88] (000+003/113) Accurately ripped
 02     [6acb64bd|2510827e] (000+003/114) Accurately ripped
 03     [edb827bd|456d13f7] (000+003/114) Accurately ripped
 04     [d8555e27|a3793bb9] (000+003/114) Accurately ripped
 05     [d4bca69f|278baf2d] (000+003/114) Accurately ripped
 06     [571e71a4|4fc273b1] (000+003/114) Accurately ripped
 07     [aa1eaf2d|3fe9ea7b] (000+003/113) Accurately ripped
 08     [fe724039|da35f9c5] (000+003/114) Accurately ripped
 09     [9b093fac|4c75ea7b] (000+003/112) Accurately ripped
Offsetted by 3:
 01     [555872e1] (002/113) Accurately ripped
 02     [395fee4b] (002/114) Accurately ripped
 03     [02d17019] (002/114) Accurately ripped
 04     [548e7f77] (002/114) Accurately ripped
 05     [7bd497d7] (002/114) Accurately ripped
 06     [e029354d] (002/114) Accurately ripped
 07     [cf5c46ad] (002/113) Accurately ripped
 08     [e6c31463] (002/114) Accurately ripped
 09     [365d3b7e] (002/112) Accurately ripped
Offsetted by 667:
 01     [f1832932] (049/113) Accurately ripped
 02     [4a1289b0] (050/114) Accurately ripped
 03     [b05e197e] (050/114) Accurately ripped
 04     [9cecaeaf] (050/114) Accurately ripped
 05     [743b15ad] (050/114) Accurately ripped
 06     [8006a153] (050/114) Accurately ripped
 07     [a74a4fb4] (049/113) Accurately ripped
 08     [aef24876] (050/114) Accurately ripped
 09     [fd8cd767] (050/112) Accurately ripped
Offsetted by 649:
 01     [4a72dc6d] (002/113) Accurately ripped
 02     [355c6628] (002/114) Accurately ripped
 03     [409d9e87] (002/114) Accurately ripped
 04     [ab7eed07] (002/114) Accurately ripped
 05     [93e7ff16] (002/114) Accurately ripped
 06     [66714900] (002/114) Accurately ripped
 07     [903146c7] (002/113) Accurately ripped
 08     [e86cb1f5] (002/114) Accurately ripped
 09     [a9616312] (000/112) No match (V2 was not tested)
Offsetted by 673:
 01     [39f1fa12] (000/113) No match (V2 was not tested)
 02     [e0800380] (000/114) No match (V2 was not tested)
 03     [940e840f] (000/114) No match (V2 was not tested)
 04     [94fc37dc] (000/114) No match (V2 was not tested)
 05     [f5643e09] (000/114) No match (V2 was not tested)
 06     [c9c99438] (000/114) No match (V2 was not tested)
 07     [c6e32bb9] (000/113) No match (V2 was not tested)
 08     [5783e871] (000/114) No match (V2 was not tested)
 09     [6b9453fd] (000/112) No match (V2 was not tested)

Track Peak [ CRC32  ] [W/O NULL] [  LOG   ]
 --  100.0 [8874CDB5] [BD61899E]   CRC32   
 01   99.9 [9C84BCF6] [7D59F57C]           
 02   99.9 [9FE1A67B] [8F1B7165]           
 03   99.9 [0B2BCCAA] [3A971BD0]           
 04   99.9 [75E111B0] [A013597B]           
 05   99.9 [1C8D3086] [15BA4F66]           
 06  100.0 [2E236DFC] [FA69778D]           
 07   99.9 [96EE5CA4] [27517117]           
 08   99.9 [59986812] [271EBB81]           
 09   99.9 [60C0DFE3] [245A432E]           



Create a new paste based on this one


Comments: