[ create a new paste ] login | about

Link: http://codepad.org/TBIYx7au    [ raw code | fork ]

Plain Text, pasted on Feb 4:
[CUETools log; Date: 2/4/2019 1:46:22 PM; Version: 2.1.5]
[CTDB TOCID: r5xJBowvW90ATrOqxSaneVt0uCA-] found.
Track | CTDB Status
  1   | (248/248) Accurately ripped
  2   | (248/248) Accurately ripped
  3   | (248/248) Accurately ripped
  4   | (248/248) Accurately ripped
  5   | (248/248) Accurately ripped
  6   | (248/248) Accurately ripped
  7   | (248/248) Accurately ripped
  8   | (248/248) Accurately ripped
  9   | (248/248) Accurately ripped
 10   | (248/248) Accurately ripped
 11   | (248/248) Accurately ripped
 12   | (248/248) Accurately ripped
 13   | (246/248) Accurately ripped
 14   | (247/248) Accurately ripped
 15   | (248/248) Accurately ripped
 16   | (248/248) Accurately ripped
 17   | (248/248) Accurately ripped
 18   | (248/248) Accurately ripped
 19   | (247/248) Accurately ripped
 20   | (247/248) Accurately ripped
 21   | (246/248) Accurately ripped
 22   | (248/248) Accurately ripped
 23   | (248/248) Accurately ripped
 24   | (248/248) Accurately ripped
 25   | (248/248) Accurately ripped
 26   | (247/248) Accurately ripped
 27   | (248/248) Accurately ripped
 28   | (248/248) Accurately ripped
 29   | (248/248) Accurately ripped
 30   | (247/248) Accurately ripped
 31   | (247/248) Accurately ripped
[AccurateRip ID: 00517e85-0716ed8d-dd12a01f] found.
Track   [  CRC   |   V2   ] Status
 01     [339c0e83|a68516b6] (00+75/78) Accurately ripped
 02     [e722c1b6|bee65d8d] (00+75/78) Accurately ripped
 03     [9da74544|5502e283] (00+75/78) Accurately ripped
 04     [66ed6a54|3df44c3f] (00+75/78) Accurately ripped
 05     [9dbd7a24|1ec42dc5] (00+75/78) Accurately ripped
 06     [d0361048|9bd32757] (00+74/77) Accurately ripped
 07     [1bf251c4|3f5a0eff] (00+75/78) Accurately ripped
 08     [1a68d58d|2f554361] (00+75/78) Accurately ripped
 09     [fd68329d|fb61b3a0] (00+75/78) Accurately ripped
 10     [0395edcf|ffb13cd7] (00+75/78) Accurately ripped
 11     [10aef551|8d74cddb] (00+75/78) Accurately ripped
 12     [a93037f2|d640462d] (00+74/77) Accurately ripped
 13     [7d18efb1|b54426f4] (00+71/77) Accurately ripped
 14     [9e960dec|7a3fdd4f] (00+74/77) Accurately ripped
 15     [fda00468|f77b65bb] (00+73/76) Accurately ripped
 16     [c951bd84|5791798b] (00+73/76) Accurately ripped
 17     [f44711b8|6f6e7d63] (00+73/76) Accurately ripped
 18     [de04442d|2c8b6755] (00+74/77) Accurately ripped
 19     [5839b57b|cbf6e732] (00+74/77) Accurately ripped
 20     [151a306b|28e8e09f] (00+74/77) Accurately ripped
 21     [19a6ae8f|c03058c6] (00+74/77) Accurately ripped
 22     [2356506c|9ebf06e8] (00+74/77) Accurately ripped
 23     [b792d39e|74243ac6] (00+74/77) Accurately ripped
 24     [5495a5b3|83ec8434] (00+74/77) Accurately ripped
 25     [f34c6524|e732ea07] (00+74/77) Accurately ripped
 26     [c12d9aa5|e94ed7a7] (00+74/77) Accurately ripped
 27     [e7fa9ab1|fd5d05b6] (00+74/77) Accurately ripped
 28     [2139e033|07241919] (00+74/77) Accurately ripped
 29     [f20a1109|af02a577] (00+74/77) Accurately ripped
 30     [18d4a1a7|d89b97ae] (00+73/76) Accurately ripped
 31     [24055e36|d6c4ef92] (00+73/76) Accurately ripped
Offsetted by -12:
 01     [d6296964] (00/78) No match (V2 was not tested)
 02     [720bc87e] (00/78) No match (V2 was not tested)
 03     [9e53441c] (00/78) No match (V2 was not tested)
 04     [1c8266b6] (00/78) No match (V2 was not tested)
 05     [1e75686a] (00/78) No match (V2 was not tested)
 06     [36930da9] (00/77) No match (V2 was not tested)
 07     [e30efe09] (00/78) No match (V2 was not tested)
 08     [826db888] (00/78) No match (V2 was not tested)
 09     [a82b889f] (00/78) No match (V2 was not tested)
 10     [a722f194] (00/78) No match (V2 was not tested)
 11     [ec00f5bd] (00/78) No match (V2 was not tested)
 12     [52bfa8e3] (00/77) No match (V2 was not tested)
 13     [e617d19c] (00/77) No match (V2 was not tested)
 14     [e005a8e0] (00/77) No match (V2 was not tested)
 15     [536572b4] (00/76) No match (V2 was not tested)
 16     [09db7406] (00/76) No match (V2 was not tested)
 17     [04f51449] (00/76) No match (V2 was not tested)
 18     [23a53f46] (00/77) No match (V2 was not tested)
 19     [99c1dc5b] (00/77) No match (V2 was not tested)
 20     [e0513806] (00/77) No match (V2 was not tested)
 21     [50ae1936] (00/77) No match (V2 was not tested)
 22     [e2bce28c] (00/77) No match (V2 was not tested)
 23     [4d7d2379] (00/77) No match (V2 was not tested)
 24     [d7459f39] (00/77) No match (V2 was not tested)
 25     [35794eb2] (00/77) No match (V2 was not tested)
 26     [33c9d738] (00/77) No match (V2 was not tested)
 27     [783ff322] (00/77) No match (V2 was not tested)
 28     [62029193] (00/77) No match (V2 was not tested)
 29     [9cf67261] (00/77) No match (V2 was not tested)
 30     [66a8a77b] (00/76) No match (V2 was not tested)
 31     [476b0fb0] (00/76) No match (V2 was not tested)

Track Peak [ CRC32  ] [W/O NULL] [  LOG   ]
 --  100.0 [FCBEC18E] [AA0E7594]           
 01  100.0 [69669D9E] [02A16CF2]   CRC32   
 02   97.2 [480132B0] [2B5FBF9B]   CRC32   
 03  100.0 [E3825255] [F287A943]   CRC32   
 04  100.0 [5FB06522] [7EC74F82]   CRC32   
 05   99.0 [861A34F6] [DC8B0215]   CRC32   
 06   93.8 [73D38508] [A4B56E7E]   CRC32   
 07   86.3 [357B417C] [468847E4]   CRC32   
 08   98.9 [12D2988A] [8BE18D74]   CRC32   
 09   87.0 [147EFFF8] [08D44E57]   CRC32   
 10   97.6 [7933D2E8] [6FCBEFD4]   CRC32   
 11   51.5 [91BFE36E] [4937E8E6]   CRC32   
 12   77.7 [F533E8D5] [5AB4FE7F]   CRC32   
 13   77.8 [DD60C268] [CA88060D]   CRC32   
 14   76.1 [FE40E5F0] [0D3F6D7A]   CRC32   
 15   84.9 [9C67883F] [A5DD2CD1]   CRC32   
 16   92.4 [8B0676D2] [B0FA8E8F]   CRC32   
 17   62.1 [A93E0413] [03B77E81]   CRC32   
 18   84.1 [BC5DBA17] [38304CB1]   CRC32   
 19   72.3 [C7956A8D] [CC1E6459]   CRC32   
 20   76.9 [F0068798] [9CD040B7]   CRC32   
 21   81.4 [CE1E1C20] [9ABA2626]   CRC32   
 22  100.0 [1798C02B] [4D3998E6]   CRC32   
 23  100.0 [B0BAB1E6] [F27B6642]   CRC32   
 24  100.0 [712E686E] [DD34849C]   CRC32   
 25   82.3 [B8A0BD15] [F13B7194]   CRC32   
 26   90.2 [DE893B56] [6E24E0F9]   CRC32   
 27   91.7 [C659DBD5] [436FAE0C]   CRC32   
 28   78.8 [370314C2] [C012C3C6]   CRC32   
 29   67.6 [A896F079] [723A1128]   CRC32   
 30   73.3 [BB5D8139] [A206A96A]   CRC32   
 31   60.5 [9B35DC98] [AD39CF67]   CRC32   



Create a new paste based on this one


Comments: