[ create a new paste ] login | about

Link: http://codepad.org/TDaFkemX    [ raw code | fork ]

Plain Text, pasted on Dec 6:
Exact Audio Copy V1.0 beta 3 from 29. August 2011

Отчёт EAC об извлечении, выполненном 3. декабря 2016, 21:34

Uriah Heep / CD2 Salisbury (Remasteres 2016)

Дисковод: ASUS    DRW-24B3ST   Adapter: 3  ID: 0

Режим чтения                 : Достоверность
Использование точного потока : Да
Отключение кэша аудио        : Да
Использование указателей C2  : Нет

Коррекция смещения при чтении                     : 6
Способность читать области Lead-in и Lead-out     : Нет
Заполнение пропущенных сэмплов тишиной            : Да
Удаление блоков с тишиной в начале и конце        : Нет
При вычислениях CRC использовались нулевые сэмплы : Да
Интерфейс                                         : Встроенный Win32-интерфейс для Win NT/2000

Выходной формат          : Пользовательский кодировщик
Выбранный битрейт        : 128 kBit/s
Качество                 : Высокий
Добавление ID3-тега      : Нет
Утилита сжатия           : C:\Program Files (x86)\Exact Audio Copy\Flac\flac.exe
Дополнительные параметры :  -V -8 -T "Date=%year%" -T "Genre=%genre%" %source%


TOC извлечённого CD

     Трек |   Старт  | Длительность | Начальный сектор | Конечный сектор 
    ---------------------------------------------------------------------
       1  |  0:00.00 |    3:50.23   |           0      |      17272      
       2  |  3:50.23 |    4:31.68   |       17273      |      37665      
       3  |  8:22.16 |    6:00.64   |       37666      |      64729      
       4  | 14:23.05 |    3:48.15   |       64730      |      81844      
       5  | 18:11.20 |    4:45.28   |       81845      |     103247      
       6  | 22:56.48 |    8:35.00   |      103248      |     141872      
       7  | 31:31.48 |    5:18.74   |      141873      |     165796      
       8  | 36:50.47 |   16:26.28   |      165797      |     239774      
       9  | 53:17.00 |   17:34.37   |      239775      |     318861      


Характеристики диапазона извлечения и сообщения об ошибках

Выбранный диапазон

     Имя файла E:\РАЗДАЧИ\Папки\Uriah Heep - Salisbury 2CD\CD2 - An Alternative Salisbury\Uriah Heep - CD2 Salisbury (Remasteres 2016).wav

     Пиковый уровень 70.7 %
     Скорость извлечения 6.9 X
     Качество диапазона 100.0 %
     CRC теста D3A257E6
     CRC копии D3A257E6
     Копирование... OK

Ошибок не произошло

 
AccurateRip: сводка
 
Трек  1  отсутствует в базе данных
Трек  2  отсутствует в базе данных
Трек  3  отсутствует в базе данных
Трек  4  отсутствует в базе данных
Трек  5  отсутствует в базе данных
Трек  6  отсутствует в базе данных
Трек  7  отсутствует в базе данных
Трек  8  отсутствует в базе данных
Трек  9  отсутствует в базе данных
 
Ни одного трека нет в базе AccurateRip

Конец отчёта

==== Контрольная сумма отчёта 86067F478971FBA03F9459465902C1C9D76A2FB33DF9B53C4EAF3E820714CC72 ====



Create a new paste based on this one


Comments: