[ create a new paste ] login | about

Link: http://codepad.org/TI9tjLza    [ raw code | fork ]

Plain Text, pasted on Dec 11:
[CUETools log; Date: 12/11/2016 9:20:57 AM; Version: 2.1.5]
[CTDB TOCID: k75NhBMhTGpQ07YcGSKTKUlgPTw-] found.
Track | CTDB Status
  1   | (216/218) Accurately ripped
  2   | (216/218) Accurately ripped
  3   | (216/218) Accurately ripped
  4   | (216/218) Accurately ripped
  5   | (214/218) Accurately ripped
  6   | (216/218) Accurately ripped
  7   | (216/218) Accurately ripped
  8   | (215/218) Accurately ripped
  9   | (213/218) Accurately ripped
 10   | (214/218) Accurately ripped
 11   | (216/218) Accurately ripped
 12   | (216/218) Accurately ripped
 13   | (216/218) Accurately ripped
 14   | (215/218) Accurately ripped
[AccurateRip ID: 0016d52d-00f48766-b50a970e] found.
Track   [  CRC   |   V2   ] Status
 01     [7abe69cc|ec93564a] (048+128/333) Accurately ripped
 02     [1a8e88de|18e5254d] (046+125/325) Accurately ripped
 03     [34a9874e|9822c4ef] (048+128/332) Accurately ripped
 04     [d32ceff3|2849d6f4] (046+126/325) Accurately ripped
 05     [414577c3|7c49ad05] (049+129/334) Accurately ripped
 06     [dde31972|ea280d52] (046+124/324) Accurately ripped
 07     [1c52137d|165077e8] (049+128/333) Accurately ripped
 08     [d90513bc|602a6a2d] (049+127/333) Accurately ripped
 09     [d9a2a787|94b70d21] (046+124/325) Accurately ripped
 10     [ce0d91f4|8e7a82e1] (049+128/335) Accurately ripped
 11     [0e2cf3ab|f4a5a635] (045+124/324) Accurately ripped
 12     [38c186f2|c67984ee] (048+126/331) Accurately ripped
 13     [70a83cfb|9da5a484] (045+124/325) Accurately ripped
 14     [5fd61576|b8dd41cd] (047+123/323) Accurately ripped
Offsetted by -676:
 01     [81476ebb] (002/333) Accurately ripped
 02     [b900e4be] (002/325) Accurately ripped
 03     [680db12d] (002/332) Accurately ripped
 04     [fee0ab40] (002/325) Accurately ripped
 05     [6dd0b987] (002/334) Accurately ripped
 06     [772c64f1] (002/324) Accurately ripped
 07     [4df1b06f] (002/333) Accurately ripped
 08     [c7e1dcca] (002/333) Accurately ripped
 09     [e71f3b05] (002/325) Accurately ripped
 10     [0c72fe31] (002/335) Accurately ripped
 11     [e2f957ee] (002/324) Accurately ripped
 12     [555ffd0a] (002/331) Accurately ripped
 13     [6344226f] (002/325) Accurately ripped
 14     [2d5ade8f] (002/323) Accurately ripped
Offsetted by -12:
 01     [eef98edd] (057/333) Accurately ripped
 02     [8df4c306] (056/325) Accurately ripped
 03     [cd70af49] (057/332) Accurately ripped
 04     [ed5c9b71] (056/325) Accurately ripped
 05     [311b55ab] (057/334) Accurately ripped
 06     [d581c892] (056/324) Accurately ripped
 07     [5c157aef] (057/333) Accurately ripped
 08     [7a7a3a82] (058/333) Accurately ripped
 09     [6d37e071] (057/325) Accurately ripped
 10     [fdeac7ef] (058/335) Accurately ripped
 11     [4c7bad72] (057/324) Accurately ripped
 12     [2a69e365] (058/331) Accurately ripped
 13     [3ac4a9d4] (057/325) Accurately ripped
 14     [b7cffa98] (055/323) Accurately ripped
Offsetted by 123:
 01     [c26a8f3f] (002/333) Accurately ripped
 02     [a99678bb] (002/325) Accurately ripped
 03     [ebfd5256] (002/332) Accurately ripped
 04     [88d5750a] (002/325) Accurately ripped
 05     [fa05cd22] (002/334) Accurately ripped
 06     [179e15b0] (002/324) Accurately ripped
 07     [56cda8af] (002/333) Accurately ripped
 08     [8bee91ad] (002/333) Accurately ripped
 09     [85a18367] (002/325) Accurately ripped
 10     [318a170e] (002/335) Accurately ripped
 11     [55f9670e] (002/324) Accurately ripped
 12     [45f35fbe] (002/331) Accurately ripped
 13     [3f3b63c2] (002/325) Accurately ripped
 14     [cc9e67b2] (002/323) Accurately ripped
Offsetted by -6:
 01     [cb4e7c51] (000/333) No match (V2 was not tested)
 02     [57f42885] (000/325) No match (V2 was not tested)
 03     [efad851d] (000/332) No match (V2 was not tested)
 04     [ede47b30] (000/325) No match (V2 was not tested)
 05     [fb238191] (000/334) No match (V2 was not tested)
 06     [8f604562] (000/324) No match (V2 was not tested)
 07     [bc30c73b] (000/333) No match (V2 was not tested)
 08     [86154d46] (000/333) No match (V2 was not tested)
 09     [3ae6c2b9] (000/325) No match (V2 was not tested)
 10     [634ee405] (000/335) No match (V2 was not tested)
 11     [420dbb26] (000/324) No match (V2 was not tested)
 12     [b5b8b52a] (000/331) No match (V2 was not tested)
 13     [e5afebd7] (000/325) No match (V2 was not tested)
 14     [8d83f67d] (000/323) No match (V2 was not tested)

Track Peak [ CRC32  ] [W/O NULL] [  LOG   ]
 --   97.7 [B0E37F65] [F9E21268]   CRC32   
 01   87.0 [09B1DB9D] [5D60772B]           
 02   97.7 [5B969E87] [B008A6E4]           
 03   97.7 [FEF86606] [2E024190]           
 04   97.7 [B9B2DA6B] [172EB47A]           
 05   97.6 [564983AF] [A2AAABD3]           
 06   97.6 [8D1A0E57] [AC388281]           
 07   97.7 [A0C54374] [241681E0]           
 08   97.7 [C152CE74] [47695F33]           
 09   97.7 [CAA12186] [EB16EBC3]           
 10   97.7 [D3BE537C] [3295188D]           
 11   97.7 [F44AA7F6] [1D5B6D7D]           
 12   97.7 [66678990] [559DFCAB]           
 13   97.7 [F1523A50] [F15FBC5E]           
 14   97.7 [7954A4D3] [D16247A3]           



Create a new paste based on this one


Comments: