[ create a new paste ] login | about

Link: http://codepad.org/TIFmL9vv    [ raw code | fork ]

Plain Text, pasted on Mar 16:
[CUETools log; Date: 3/16/2016 10:02:38 PM; Version: 2.1.5]
[CTDB TOCID: qCxVe.7qE4A6r9wzndOoRmMOh1o-] found.
Track | CTDB Status
  1   | (32/33) Accurately ripped
  2   | (33/33) Accurately ripped
  3   | (33/33) Accurately ripped
  4   | (33/33) Accurately ripped
  5   | (33/33) Accurately ripped
  6   | (33/33) Accurately ripped
  7   | (33/33) Accurately ripped
  8   | (33/33) Accurately ripped
  9   | (33/33) Accurately ripped
 10   | (33/33) Accurately ripped
 11   | (33/33) Accurately ripped
 12   | (33/33) Accurately ripped
 13   | (33/33) Accurately ripped
 14   | (33/33) Accurately ripped
 15   | (33/33) Accurately ripped
 16   | (33/33) Accurately ripped
 17   | (33/33) Accurately ripped
[AccurateRip ID: 002fc4dd-0260a0ab-00128211] found.
Track   [  CRC   |   V2   ] Status
 01     [e280eb41|14bbf964] (00+56/56) Accurately ripped
 02     [437d7cff|e9f09867] (00+56/56) Accurately ripped
 03     [2d2891cf|1b097a1b] (00+56/56) Accurately ripped
 04     [67506923|6b6875be] (00+56/56) Accurately ripped
 05     [2e04080e|33ccbda6] (00+56/56) Accurately ripped
 06     [debf18fb|5e543215] (00+56/56) Accurately ripped
 07     [eeceb3ff|3e9ef649] (00+56/56) Accurately ripped
 08     [8b3d5011|a811eb97] (00+56/56) Accurately ripped
 09     [4e3b8d69|79d44db0] (00+56/56) Accurately ripped
 10     [6baae43f|48be2eca] (00+56/56) Accurately ripped
 11     [91067cdf|f5a12d76] (00+56/56) Accurately ripped
 12     [6e33bba6|85c3d65d] (00+56/56) Accurately ripped
 13     [1d18058b|58cf3c32] (00+56/56) Accurately ripped
 14     [dc7649b3|6538395b] (00+56/56) Accurately ripped
 15     [7be20e0c|ef8970f4] (00+56/56) Accurately ripped
 16     [d8de4fbe|5aeeede5] (00+56/56) Accurately ripped
 17     [67e7a037|d7bf6615] (00+56/56) Accurately ripped

Track Peak [ CRC32  ] [W/O NULL] [  LOG   ]
 --   97.9 [26415DEE] [65D78E4D]   CRC32   
 01   68.5 [407077C7] [BFBCF8F9]           
 02   95.1 [96A9E452] [3A3D47D8]           
 03   82.9 [3C1656EE] [94237759]           
 04   78.5 [86B0E7AD] [20747583]           
 05   92.4 [052BF459] [83A27D62]           
 06   93.9 [AE35E63C] [7D9AB13F]           
 07   94.6 [3DF416A8] [BB3DC7B9]           
 08   68.0 [4196D048] [628875B3]           
 09   97.7 [FDCDB494] [284CE3CC]           
 10   88.8 [B1D23D19] [C0AC57B3]           
 11   90.7 [7075810A] [B2BFF80F]           
 12   83.5 [20845D2E] [FBF719F7]           
 13   95.9 [FC7952CD] [4B198B8A]           
 14   89.0 [99F5174A] [F16E77FD]           
 15   97.9 [96D071DF] [69D99E40]           
 16   83.8 [48F2B50B] [2998FA8D]           
 17   83.7 [799FCD64] [37B0BAF2]           



Create a new paste based on this one


Comments: