[ create a new paste ] login | about

Link: http://codepad.org/TIwzThBy    [ raw code | fork ]

Plain Text, pasted on May 30:
Exact Audio Copy V1.0 beta 3 from 29. August 2011

EAC extraction logfile from 26. November 2013, 21:59

Lindsey Buckingham / Law and Order

Used drive  : PLEXTOR DVDR   PX-820SA   Adapter: 3  ID: 0

Read mode               : Secure
Utilize accurate stream : Yes
Defeat audio cache      : Yes
Make use of C2 pointers : No

Read offset correction                      : 48
Overread into Lead-In and Lead-Out          : No
Fill up missing offset samples with silence : Yes
Delete leading and trailing silent blocks   : No
Null samples used in CRC calculations       : Yes
Used interface                              : Installed external ASPI interface

Used output format : Internal WAV Routines
Sample format      : 44.100 Hz; 16 Bit; Stereo


TOC of the extracted CD

     Track |   Start  |  Length  | Start sector | End sector 
    ---------------------------------------------------------
        1  |  0:00.32 |  3:02.40 |        32    |    13721   
        2  |  3:02.72 |  3:51.15 |     13722    |    31061   
        3  |  6:54.12 |  3:13.33 |     31062    |    45569   
        4  | 10:07.45 |  4:20.05 |     45570    |    65074   
        5  | 14:27.50 |  2:39.00 |     65075    |    76999   
        6  | 17:06.50 |  3:16.50 |     77000    |    91749   
        7  | 20:23.25 |  3:51.50 |     91750    |   109124   
        8  | 24:15.00 |  2:53.37 |    109125    |   122136   
        9  | 27:08.37 |  3:09.00 |    122137    |   136311   
       10  | 30:17.37 |  2:49.40 |    136312    |   149026   
       11  | 33:07.02 |  2:48.15 |    149027    |   161641   


Range status and errors

Selected range

     Filename C:\ripped_by_SUPANG\rock\Lindsey Buckingham -1981- Law and Order {Asylum 64561-2, WG Target}\Lindsey Buckingham - Law and Order.wav

     Peak level 100.0 %
     Extraction speed 3.4 X
     Range quality 100.0 %
     Test CRC DCA39042
     Copy CRC DCA39042
     Copy OK

No errors occurred

 
AccurateRip summary
 
Track  1  accurately ripped (confidence 11)  [45A57559]  (AR v2)
Track  2  accurately ripped (confidence 11)  [CDEC179A]  (AR v2)
Track  3  accurately ripped (confidence 11)  [16EC498C]  (AR v2)
Track  4  accurately ripped (confidence 11)  [81F64E72]  (AR v2)
Track  5  accurately ripped (confidence 11)  [BB3EE75F]  (AR v2)
Track  6  accurately ripped (confidence 11)  [A84B16DF]  (AR v2)
Track  7  accurately ripped (confidence 11)  [4D65C63C]  (AR v2)
Track  8  accurately ripped (confidence 11)  [AC5BE05A]  (AR v2)
Track  9  accurately ripped (confidence 11)  [741B5AD3]  (AR v2)
Track 10  accurately ripped (confidence 11)  [53A70CE2]  (AR v2)
Track 11  accurately ripped (confidence 11)  [2C4FD802]  (AR v2)
 
All tracks accurately ripped

End of status report

==== Log checksum 8BB9F4FE665EFF1B8D2818D38376A8F532AC86663731B445F2D06A9BB2FCD3E4 ====



Create a new paste based on this one


Comments: