[ create a new paste ] login | about

Link: http://codepad.org/TNkhsatU    [ raw code | fork ]

Plain Text, pasted on Nov 27:
foobar2000 1.3.17 / Dynamic Range Meter 1.1.1
log date: 2018-11-27 12:59:57

--------------------------------------------------------------------------------
Analyzed: Billy Carr / The Epic Vault: Rock N' Roll Singles (1965 - 1967) (1-2)
          Bobby Sherman / The Epic Vault: Rock N' Roll Singles (1965 - 1967) (3-4)
          Dave Heenan Set / The Epic Vault: Rock N' Roll Singles (1965 - 1967) (5-6)
          Gary Stites / The Epic Vault: Rock N' Roll Singles (1965 - 1967) (7-8)
          Jerry and Deborah / The Epic Vault: Rock N' Roll Singles (1965 - 1967) (9-10)
          Kin Vassy / The Epic Vault: Rock N' Roll Singles (1965 - 1967) (11-12)
          Larry and The Paper Prophets / The Epic Vault: Rock N' Roll Singles (1965 - 1967) (13-14)
          Peter Thom / The Epic Vault: Rock N' Roll Singles (1965 - 1967) (15-16)
          The Alley Cats / The Epic Vault: Rock N' Roll Singles (1965 - 1967) (17-18)
          the Bad / The Epic Vault: Rock N' Roll Singles (1965 - 1967) (19-20)
          The Bouncin' Beats / The Epic Vault: Rock N' Roll Singles (1965 - 1967) (21-22)
          The Brigands / The Epic Vault: Rock N' Roll Singles (1965 - 1967) (23-24)
          The Industrial Image / The Epic Vault: Rock N' Roll Singles (1965 - 1967) (25-26)
          The Pop Art / The Epic Vault: Rock N' Roll Singles (1965 - 1967) (27-28)
          The Tambourines / The Epic Vault: Rock N' Roll Singles (1965 - 1967) (29-30)
          The Upper Hand / The Epic Vault: Rock N' Roll Singles (1965 - 1967) (31-32)
--------------------------------------------------------------------------------

DR         Peak         RMS     Duration Track
--------------------------------------------------------------------------------
DR9       -1.04 dB   -12.71 dB      2:35 03-Goodbye Girl
DR10      -0.37 dB   -12.81 dB      2:25 19-Don't Cry Donna
DR9       -1.61 dB   -12.10 dB      2:22 15-Think of Rain
DR11      -0.03 dB   -12.88 dB      2:50 31-Cold Girl
DR10      -0.04 dB   -11.83 dB      2:29 14-Alice In Wonderland
DR10      -0.04 dB   -13.25 dB      2:54 30-So Many Roads
DR9       -0.89 dB   -12.85 dB      2:19 06-Hurting
DR10      -0.59 dB   -12.18 dB      1:54 22-Thinking of You
DR9       -0.63 dB   -10.97 dB      2:50 10-Come On In
DR12      -0.60 dB   -13.76 dB      2:24 26-Crazy Changes
DR11      -0.82 dB   -12.65 dB      2:27 13-Gamblin' Man
DR11      -0.03 dB   -12.80 dB      2:47 29-Tracks Run Through the City
DR10      -0.12 dB   -11.81 dB      2:11 16-Can't Sit Around
DR10      -0.24 dB   -11.80 dB      2:10 32-The Only Thing
DR10      -0.92 dB   -12.52 dB      2:10 08-Don't Stick Your Tongue Out at Me
DR9       -1.01 dB   -12.42 dB      2:43 24-Fly Away
DR10      -0.48 dB   -11.44 dB      2:47 01-Lily of the West
DR10      -0.04 dB   -11.17 dB      2:18 17-I Should Have Stayed at Home Tonight
DR9       -1.91 dB   -12.12 dB      2:05 04-Everybody Needs Somebody to Love
DR10      -1.26 dB   -12.80 dB      2:42 20-She'll Love Me
DR11      -0.23 dB   -12.53 dB      2:32 02-The Bounce
DR11      -0.02 dB   -12.57 dB      2:23 18-I Need Your Love
DR12      -0.08 dB   -14.16 dB      1:54 05-I'm a Patient Man
DR10      -0.51 dB   -12.74 dB      2:20 21-(Would I Still Be) Her Big Man
DR10      -0.46 dB   -12.08 dB      2:33 11-Living In the Middle Ages
DR11      -0.02 dB   -12.37 dB      1:56 27-Put My Mind at Ease
DR10      -0.74 dB   -12.97 dB      2:25 09-Rumpelstiltskin
DR10      -0.15 dB   -12.36 dB      2:02 25-Ode to an Unknown Girl
DR12      -0.17 dB   -13.32 dB      3:23 07-I Wanna Live
DR12      -0.35 dB   -13.49 dB      2:09 23-Git It!
DR11      -0.21 dB   -12.31 dB      2:20 12-Real Appeal
DR9       -0.87 dB   -11.59 dB      2:30 28-Little Tear
--------------------------------------------------------------------------------

Number of tracks:  32
Official DR value: DR10

Samplerate:        44100 Hz
Channels:          2
Bits per sample:   16
Bitrate:           622 kbps
Codec:             FLAC
================================================================================




Create a new paste based on this one


Comments: