[ create a new paste ] login | about

Link: http://codepad.org/TR1UYgza    [ raw code | fork ]

Plain Text, pasted on Aug 5:
[CUETools log; Date: 8/5/2017 11:04:31 AM; Version: 2.1.5]
[CTDB TOCID: SURXeJE2TbIoINqCjwQdghSOmTs-] found.
Track | CTDB Status
  1   | (2/2) Accurately ripped
  2   | (2/2) Accurately ripped
  3   | (2/2) Accurately ripped
  4   | (2/2) Accurately ripped
  5   | (2/2) Accurately ripped
  6   | (2/2) Accurately ripped
  7   | (2/2) Accurately ripped
  8   | (2/2) Accurately ripped
  9   | (2/2) Accurately ripped
 10   | (2/2) Accurately ripped
 11   | (2/2) Accurately ripped
[AccurateRip ID: 001f8276-010fe11b-88122b0b] found.
Track   [  CRC   |   V2   ] Status
 01     [84016705|409bbf2a] (0+1/1) Accurately ripped
 02     [c4b99502|107c9e8e] (0+1/1) Accurately ripped
 03     [e27e9513|48a6a310] (0+1/1) Accurately ripped
 04     [009498b2|95390941] (0+1/1) Accurately ripped
 05     [294d750e|85b7c11a] (0+1/1) Accurately ripped
 06     [c1050880|57076fcc] (0+1/1) Accurately ripped
 07     [d24ca606|9b6595ff] (0+1/1) Accurately ripped
 08     [13797b11|da956ced] (0+1/1) Accurately ripped
 09     [fd0c47a5|7c070bd9] (0+1/1) Accurately ripped
 10     [b4938e51|69efd881] (0+1/1) Accurately ripped
 11     [dd5c2417|c7f5f8db] (0+1/1) Accurately ripped

Track Peak [ CRC32  ] [W/O NULL] 
 --   96.9 [790C61E8] [9DBD2270]           
 01   96.4 [3CD7DF1C] [7AB7D6FE]           
 02   96.3 [FDFBB3FE] [9A00A786]           
 03   96.9 [A76C19FE] [3AC0DBE0]           
 04   96.6 [B3A3F091] [07791FFE]           
 05   96.6 [8B79EA75] [171F9959]           
 06   96.6 [D906CB97] [A809A313]           
 07   89.7 [CA91AE93] [FD10C1DB]           
 08   96.6 [BF51D64B] [8B4D556F]           
 09   96.6 [D69BFC3E] [0AEEAB47]           
 10   96.5 [C48DCC0E] [795658C3]           
 11   78.3 [2FDAE132] [9C5635D3]           



Create a new paste based on this one


Comments: