[ create a new paste ] login | about

Link: http://codepad.org/TSAdyhqZ    [ raw code | fork ]

Plain Text, pasted on May 10:
Exact Audio Copy V1.0 beta 3 from 29. August 2011

EAC extraction logfile from 6. May 2017, 21:15

The Cranberries / Something Else

Used drive  : ASUS    DRW-24F1ST   a   Adapter: 0  ID: 0

Read mode               : Secure
Utilize accurate stream : Yes
Defeat audio cache      : Yes
Make use of C2 pointers : No

Read offset correction                      : 6
Overread into Lead-In and Lead-Out          : No
Fill up missing offset samples with silence : Yes
Delete leading and trailing silent blocks   : No
Null samples used in CRC calculations       : Yes
Used interface                              : Native Win32 interface for Win NT & 2000
Gap handling                                : Appended to previous track

Used output format              : User Defined Encoder
Selected bitrate                : 128 kBit/s
Quality                         : High
Add ID3 tag                     : No
Command line compressor         : C:\Program Files (x86)\Exact Audio Copy\FLAC\FLAC.EXE
Additional command line options : -8 -V -T "ARTIST=%artist%" -T "TITLE=%title%" -T "ALBUM=%albumtitle%" -T "DATE=%year%" -T "TRACKNUMBER=%tracknr%" -T "TOTALTRACKS=%numtracks%" -T "GENRE=%genre%" -T "ALBUMARTIST=%albumartist%" -T "ALBUM ARTIST=%albumartist%" -T "COMMENT=EAC Secure Mode, Test & Copy, AccurateRip, FLAC -8" %source%


TOC of the extracted CD

     Track |   Start  |  Length  | Start sector | End sector 
    ---------------------------------------------------------
        1  |  0:00.00 |  4:56.53 |         0    |    22252   
        2  |  4:56.53 |  5:14.51 |     22253    |    45853   
        3  | 10:11.29 |  4:24.21 |     45854    |    65674   
        4  | 14:35.50 |  4:10.40 |     65675    |    84464   
        5  | 18:46.15 |  4:01.42 |     84465    |   102581   
        6  | 22:47.57 |  3:07.50 |    102582    |   116656   
        7  | 25:55.32 |  4:16.44 |    116657    |   135900   
        8  | 30:12.01 |  4:43.09 |    135901    |   157134   
        9  | 34:55.10 |  3:17.05 |    157135    |   171914   
       10  | 38:12.15 |  4:02.34 |    171915    |   190098   
       11  | 42:14.49 |  3:39.02 |    190099    |   206525   
       12  | 45:53.51 |  3:33.21 |    206526    |   222521   
       13  | 49:26.72 |  5:03.73 |    222522    |   245319   


Track  1

     Filename K:\EAC\01 - Linger.wav

     Pre-gap length  0:00:02.00

     Peak level 96.4 %
     Extraction speed 1.8 X
     Track quality 100.0 %
     Test CRC 28FB9D37
     Copy CRC 28FB9D37
     Track not present in AccurateRip database
     Copy OK

Track  2

     Filename K:\EAC\02 - The Glory.wav

     Peak level 94.5 %
     Extraction speed 2.0 X
     Track quality 100.0 %
     Test CRC 18BE7973
     Copy CRC 18BE7973
     Track not present in AccurateRip database
     Copy OK

Track  3

     Filename K:\EAC\03 - Dreams.wav

     Peak level 95.8 %
     Extraction speed 2.0 X
     Track quality 99.9 %
     Test CRC CF64A22A
     Copy CRC CF64A22A
     Track not present in AccurateRip database
     Copy OK

Track  4

     Filename K:\EAC\04 - When You're Gone.wav

     Peak level 97.9 %
     Extraction speed 2.3 X
     Track quality 100.0 %
     Test CRC 3A645B58
     Copy CRC 3A645B58
     Track not present in AccurateRip database
     Copy OK

Track  5

     Filename K:\EAC\05 - Zombie.wav

     Peak level 97.1 %
     Extraction speed 2.5 X
     Track quality 100.0 %
     Test CRC 68E9591B
     Copy CRC 68E9591B
     Track not present in AccurateRip database
     Copy OK

Track  6

     Filename K:\EAC\06 - Ridiculous Thoughts.wav

     Peak level 95.6 %
     Extraction speed 2.5 X
     Track quality 100.0 %
     Test CRC CE74201A
     Copy CRC CE74201A
     Track not present in AccurateRip database
     Copy OK

Track  7

     Filename K:\EAC\07 - Rupture.wav

     Peak level 95.0 %
     Extraction speed 2.7 X
     Track quality 100.0 %
     Test CRC 597DE9C3
     Copy CRC 597DE9C3
     Track not present in AccurateRip database
     Copy OK

Track  8

     Filename K:\EAC\08 - Ode To My Family.wav

     Peak level 98.9 %
     Extraction speed 2.9 X
     Track quality 100.0 %
     Test CRC 11994808
     Copy CRC 11994808
     Track not present in AccurateRip database
     Copy OK

Track  9

     Filename K:\EAC\09 - Free To Decide.wav

     Peak level 98.1 %
     Extraction speed 2.9 X
     Track quality 100.0 %
     Test CRC FF17A2F5
     Copy CRC FF17A2F5
     Track not present in AccurateRip database
     Copy OK

Track 10

     Filename K:\EAC\10 - Just My Imagination.wav

     Peak level 95.2 %
     Extraction speed 3.0 X
     Track quality 100.0 %
     Test CRC 41FEDE6C
     Copy CRC 41FEDE6C
     Track not present in AccurateRip database
     Copy OK

Track 11

     Filename K:\EAC\11 - Animal Instinct.wav

     Peak level 97.2 %
     Extraction speed 3.1 X
     Track quality 100.0 %
     Test CRC F77AE2AD
     Copy CRC F77AE2AD
     Track not present in AccurateRip database
     Copy OK

Track 12

     Filename K:\EAC\12 - You & Me.wav

     Peak level 98.9 %
     Extraction speed 3.2 X
     Track quality 100.0 %
     Test CRC 766BC10A
     Copy CRC 766BC10A
     Track not present in AccurateRip database
     Copy OK

Track 13

     Filename K:\EAC\13 - Why.wav

     Peak level 98.9 %
     Extraction speed 3.4 X
     Track quality 100.0 %
     Test CRC 350755C1
     Copy CRC 350755C1
     Track not present in AccurateRip database
     Copy OK


None of the tracks are present in the AccurateRip database

No errors occurred

End of status report

==== Log checksum 64E9A8123D7F00A54EA3DCC127CB9A58A7FEF63D631B4EB9C6D0398B6AE68BF9 ====



Create a new paste based on this one


Comments: