[ create a new paste ] login | about

Link: http://codepad.org/TcobcI4w    [ raw code | fork ]

Plain Text, pasted on Nov 23:
[CUETools log; Date: 11/23/2016 7:56:59 AM; Version: 2.1.5]
Pregap length 00:00:10.
[CTDB TOCID: SaIntq5IklOe0TWZo7CgppvgLfw-] found.
Track | CTDB Status
  1   | (13/13) Accurately ripped
  2   | (13/13) Accurately ripped
  3   | (13/13) Accurately ripped
  4   | (13/13) Accurately ripped
  5   | (13/13) Accurately ripped
  6   | (13/13) Accurately ripped
  7   | (13/13) Accurately ripped
  8   | (13/13) Accurately ripped
[AccurateRip ID: 0013dceb-00841374-670f7308] found.
Track   [  CRC   |   V2   ] Status
 01     [c734a1ea|3f690f56] (09+21/40) Accurately ripped
 02     [550e6deb|6cd8e7cd] (09+21/40) Accurately ripped
 03     [9bc6c8a5|1758633b] (09+21/40) Accurately ripped
 04     [f69b369e|ffd07ff2] (09+21/40) Accurately ripped
 05     [8b7fd9a3|8a619c59] (09+21/40) Accurately ripped
 06     [3607d000|45e19b8c] (09+21/40) Accurately ripped
 07     [ff4de8dc|30436960] (09+21/40) Accurately ripped
 08     [c84a7751|780999ac] (09+21/39) Accurately ripped
Offsetted by -6:
 01     [3909d30d] (07/40) Accurately ripped
 02     [85302de7] (07/40) Accurately ripped
 03     [3305bd6c] (07/40) Accurately ripped
 04     [a28b4dbe] (07/40) Accurately ripped
 05     [aa45a5e2] (07/40) Accurately ripped
 06     [37107819] (07/40) Accurately ripped
 07     [87c8f63b] (07/40) Accurately ripped
 08     [08f455bb] (06/39) Accurately ripped

Track Peak [ CRC32  ] [W/O NULL] [  LOG   ]
 --  100.0 [FBC35094] [4830CA35]   CRC32   
 01  100.0 [6343E735] [EDB3C931]           
 02  100.0 [37F34D51] [AF607332]           
 03  100.0 [556B845A] [D06D37D0]           
 04  100.0 [C0BE6D1C] [2AA76718]           
 05  100.0 [1071AC87] [BBC45390]           
 06  100.0 [DB4B4502] [D7915EA5]           
 07  100.0 [28C00953] [8F712309]           
 08  100.0 [B009D665] [23A4018B]           



Create a new paste based on this one


Comments: