[ create a new paste ] login | about

Link: http://codepad.org/TeizOT7G    [ raw code | fork ]

Plain Text, pasted on Feb 4:
[CUETools log; Date: 2/4/2019 1:46:36 PM; Version: 2.1.5]
[CTDB TOCID: bMcRmLbmHazAsj14nudQ4DQKHlA-] found.
Track | CTDB Status
  1   | (240/241) Accurately ripped
  2   | (240/241) Accurately ripped
  3   | (240/241) Accurately ripped
  4   | (240/241) Accurately ripped
  5   | (237/241) Accurately ripped
  6   | (238/241) Accurately ripped
  7   | (238/241) Accurately ripped
  8   | (239/241) Accurately ripped
  9   | (239/241) Accurately ripped
 10   | (240/241) Accurately ripped
 11   | (240/241) Accurately ripped
 12   | (240/241) Accurately ripped
 13   | (240/241) Accurately ripped
 14   | (240/241) Accurately ripped
 15   | (240/241) Accurately ripped
 16   | (240/241) Accurately ripped
 17   | (240/241) Accurately ripped
 18   | (240/241) Accurately ripped
 19   | (240/241) Accurately ripped
 20   | (240/241) Accurately ripped
 21   | (239/241) Accurately ripped
 22   | (240/241) Accurately ripped
 23   | (240/241) Accurately ripped
 24   | (239/241) Accurately ripped
 25   | (239/241) Accurately ripped
 26   | (238/241) Accurately ripped
 27   | (238/241) Accurately ripped
 28   | (239/241) Accurately ripped
 29   | (237/241) Accurately ripped
 30   | (238/241) Accurately ripped
 31   | (239/241) Accurately ripped
 32   | (238/241) Accurately ripped
 33   | (236/241) Accurately ripped
 34   | (236/241) Accurately ripped
[AccurateRip ID: 0056299f-082dacbd-e5128722] found.
Track   [  CRC   |   V2   ] Status
 01     [92342ef8|9d06f1f8] (00+72/75) Accurately ripped
 02     [5043b4e5|1ae6c49c] (00+72/75) Accurately ripped
 03     [94e6595c|a0edb4ac] (00+72/75) Accurately ripped
 04     [fe3961be|6bbd8c33] (00+72/75) Accurately ripped
 05     [2f6ac08a|c07ed7cd] (00+71/74) Accurately ripped
 06     [f97d857b|96eeda51] (00+72/75) Accurately ripped
 07     [c3d18bf0|afd0b67e] (00+72/75) Accurately ripped
 08     [6955df17|e4a2d371] (00+72/75) Accurately ripped
 09     [d5702c77|c5044af1] (00+72/75) Accurately ripped
 10     [bd2772d1|3b496e40] (00+72/75) Accurately ripped
 11     [3fd47a42|e88217c4] (00+73/76) Accurately ripped
 12     [0eb4f9b3|7e28be3f] (00+73/76) Accurately ripped
 13     [cc1067a0|3d21f0b6] (00+73/76) Accurately ripped
 14     [c92a3db5|3623f5cd] (00+73/76) Accurately ripped
 15     [41fa12b4|bb101005] (00+73/76) Accurately ripped
 16     [6795f969|6404bc17] (00+73/76) Accurately ripped
 17     [b6d4e78a|2a8c79b1] (00+73/76) Accurately ripped
 18     [9f75ee86|e00b793d] (00+73/76) Accurately ripped
 19     [e63af15d|c180b0cd] (00+73/76) Accurately ripped
 20     [6a2d0552|f19ab230] (00+73/76) Accurately ripped
 21     [5b50ea9e|7616f1b9] (00+73/76) Accurately ripped
 22     [52931d24|c26133f7] (00+73/76) Accurately ripped
 23     [563f500e|d6f466c2] (00+72/75) Accurately ripped
 24     [975d587a|ba7d98c3] (00+72/75) Accurately ripped
 25     [840a2049|aa7b7d2e] (00+72/75) Accurately ripped
 26     [4fdac376|a0496ef0] (00+71/74) Accurately ripped
 27     [aa25733f|474751b3] (00+71/74) Accurately ripped
 28     [d7863b6b|e56cbd6a] (00+71/74) Accurately ripped
 29     [1052592e|b52c30a8] (00+71/74) Accurately ripped
 30     [33f33b2f|bbfce170] (00+71/74) Accurately ripped
 31     [3d3a01d7|1107b0b4] (00+71/74) Accurately ripped
 32     [967f9a3e|f3534bea] (00+71/74) Accurately ripped
 33     [b3d58423|13842868] (00+71/74) Accurately ripped
 34     [142f2b74|2f8e6605] (00+70/73) Accurately ripped
Offsetted by -12:
 01     [daa0d0bc] (00/75) No match (V2 was not tested)
 02     [a5e7afa9] (00/75) No match (V2 was not tested)
 03     [b20d54e5] (00/75) No match (V2 was not tested)
 04     [a61994a5] (00/75) No match (V2 was not tested)
 05     [f264a233] (00/74) No match (V2 was not tested)
 06     [f2da82e4] (00/75) No match (V2 was not tested)
 07     [17aa9649] (00/75) No match (V2 was not tested)
 08     [0f4b0bed] (00/75) No match (V2 was not tested)
 09     [80eb4063] (00/75) No match (V2 was not tested)
 10     [2a1cfd49] (00/75) No match (V2 was not tested)
 11     [e85f1229] (00/76) No match (V2 was not tested)
 12     [92728b99] (00/76) No match (V2 was not tested)
 13     [d4911ca7] (00/76) No match (V2 was not tested)
 14     [b4a8361e] (00/76) No match (V2 was not tested)
 15     [efa61120] (00/76) No match (V2 was not tested)
 16     [70751efe] (00/76) No match (V2 was not tested)
 17     [9ea2c10a] (00/76) No match (V2 was not tested)
 18     [eda0effb] (00/76) No match (V2 was not tested)
 19     [33ce9384] (00/76) No match (V2 was not tested)
 20     [d7f76bf2] (00/76) No match (V2 was not tested)
 21     [6a90b5e4] (00/76) No match (V2 was not tested)
 22     [530815fd] (00/76) No match (V2 was not tested)
 23     [76757123] (00/75) No match (V2 was not tested)
 24     [3d85444c] (00/75) No match (V2 was not tested)
 25     [ef6580c4] (00/75) No match (V2 was not tested)
 26     [284345cf] (00/74) No match (V2 was not tested)
 27     [c15a242f] (00/74) No match (V2 was not tested)
 28     [4e7d3a87] (00/74) No match (V2 was not tested)
 29     [c2ab9791] (00/74) No match (V2 was not tested)
 30     [0948510a] (00/74) No match (V2 was not tested)
 31     [63a5541c] (00/74) No match (V2 was not tested)
 32     [3487389c] (00/74) No match (V2 was not tested)
 33     [afec83c1] (00/74) No match (V2 was not tested)
 34     [1be50004] (00/73) No match (V2 was not tested)

Track Peak [ CRC32  ] [W/O NULL] [  LOG   ]
 --  100.0 [AEFCA85B] [2BC5432F]           
 01   77.2 [AD739B52] [195645B4]   CRC32   
 02   98.7 [6D428A3F] [57FE8825]   CRC32   
 03   82.1 [7A43FDDF] [9B47061E]   CRC32   
 04   56.6 [D8B1C176] [48DA65EE]   CRC32   
 05   95.8 [72E66241] [034A6FF9]   CRC32   
 06   70.8 [0333A17C] [FA84E012]   CRC32   
 07   92.0 [0EEAA6FB] [A184D35D]   CRC32   
 08   82.9 [68B8E32F] [61B8B326]   CRC32   
 09   70.7 [420BD5E5] [862A5A11]   CRC32   
 10   45.8 [2DBACF68] [D1A0FE76]   CRC32   
 11   65.4 [40CEB9AC] [00FB5A65]   CRC32   
 12   61.6 [C88E8FF7] [C02EE0D5]   CRC32   
 13   78.3 [E3BAC309] [925DAFA6]   CRC32   
 14   84.3 [B4391217] [12BD35D0]   CRC32   
 15   54.0 [34BABA94] [E3B743B0]   CRC32   
 16   60.7 [9DE37231] [9330FE76]   CRC32   
 17   51.6 [1F1715DF] [A7955F10]   CRC32   
 18   77.1 [0A9C3F43] [B79BC953]   CRC32   
 19   63.2 [7B2767CF] [71D2B32E]   CRC32   
 20   62.9 [2EBD7C27] [D25DE7A0]   CRC32   
 21   84.0 [F6626511] [4E4F78F4]   CRC32   
 22   84.7 [EF7D8E26] [0C4179B9]   CRC32   
 23   79.4 [1B099B94] [3BFE41D7]   CRC32   
 24   98.9 [4DAEFBA8] [E4CFDC98]   CRC32   
 25   70.3 [E0FFC4F6] [C1E24C19]   CRC32   
 26   93.4 [61296598] [57B746E4]   CRC32   
 27   75.1 [1F2FD6EC] [BDB8E309]   CRC32   
 28   69.7 [A5741524] [BEF28A7E]   CRC32   
 29  100.0 [C4D65C48] [11B7F24F]   CRC32   
 30   83.0 [FB1ADB52] [F70FFBE3]   CRC32   
 31   47.0 [27FAD399] [6A1F7E6B]   CRC32   
 32   69.2 [B77E3EF3] [721B3C68]   CRC32   
 33   58.1 [3E09EED6] [A1D9A6C5]   CRC32   
 34   63.0 [778824CD] [890C60A2]   CRC32   



Create a new paste based on this one


Comments: