[ create a new paste ] login | about

Link: http://codepad.org/TgvL7HxB    [ raw code | fork ]

Plain Text, pasted on Feb 28:
1
2
3
4
5
6
7
8
9
10
11
12
13
14
15
16
17
18
[CUETools log; Date: 2/27/2017 8:34:30 PM; Version: 2.1.5]
[CTDB TOCID: 3ip36R3uyc6p7d5eY.8hUCP.yjk-] found.
Track | CTDB Status
  1   | (7/7) Accurately ripped
  2   | (7/7) Accurately ripped
  3   | (7/7) Accurately ripped
[AccurateRip ID: 000149d6-0004346d-19021103] found.
Track   [  CRC   |   V2   ] Status
 01     [d57ac216|272b4881] (11+10/21) Accurately ripped
 02     [9f1d7d6a|f907d5ba] (11+10/21) Accurately ripped
 03     [014f7397|6132de12] (11+10/21) Accurately ripped

Track Peak [ CRC32  ] [W/O NULL] [  LOG   ]
 --   98.9 [78A588E4] [0B2AE8CD]           
 01   98.8 [7F9744C0] [2EC84223]   CRC32   
 02   98.2 [2BBA030D] [1B73A086]   CRC32   
 03   98.9 [2F60C686] [00C192BC]   CRC32   



Create a new paste based on this one


Comments: