[ create a new paste ] login | about

Link: http://codepad.org/TiC5hQyE    [ raw code | fork ]

Plain Text, pasted on Apr 26:
Exact Audio Copy V1.0 beta 4 from 7. December 2014

Отчёт EAC об извлечении, выполненном 20. апреля 2016, 19:31

Herman's Hermits / The 50th Anniversary Anthology CD2

Дисковод: ASUS    DRW-24F1ST   a   Adapter: 1  ID: 0

Режим чтения                 : Достоверность
Использование точного потока : Да
Отключение кэша аудио        : Да
Использование указателей C2  : Нет

Коррекция смещения при чтении                     : 6
Способность читать области Lead-in и Lead-out     : Нет
Заполнение пропущенных сэмплов тишиной            : Да
Удаление блоков с тишиной в начале и конце        : Нет
При вычислениях CRC использовались нулевые сэмплы : Да
Интерфейс                                         : Встроенный Win32-интерфейс для Win NT/2000

Выходной формат          : Пользовательский кодировщик
Выбранный битрейт        : 128 kBit/s
Качество                 : Высокий
Добавление ID3-тега      : Нет
Утилита сжатия           : C:\Program Files\Exact Audio Copy\Flac\flac.exe
Дополнительные параметры :  -V -8 -T "Date=%year%" -T "Genre=%genre%" %source%


TOC извлечённого CD

     Трек |   Старт  | Длительность | Начальный сектор | Конечный сектор 
    ---------------------------------------------------------------------
       1  |  0:00.00 |    2:07.63   |           0      |       9587      
       2  |  2:07.63 |    2:18.06   |        9588      |      19943      
       3  |  4:25.69 |    1:51.21   |       19944      |      28289      
       4  |  6:17.15 |    3:00.73   |       28290      |      41862      
       5  |  9:18.13 |    2:27.09   |       41863      |      52896      
       6  | 11:45.22 |    2:15.37   |       52897      |      63058      
       7  | 14:00.59 |    2:07.71   |       63059      |      72654      
       8  | 16:08.55 |    2:21.44   |       72655      |      83273      
       9  | 18:30.24 |    3:30.04   |       83274      |      99027      
      10  | 22:00.28 |    2:16.03   |       99028      |     109230      
      11  | 24:16.31 |    2:31.17   |      109231      |     120572      
      12  | 26:47.48 |    2:31.28   |      120573      |     131925      
      13  | 29:19.01 |    2:26.04   |      131926      |     142879      
      14  | 31:45.05 |    2:08.60   |      142880      |     152539      
      15  | 33:53.65 |    2:53.09   |      152540      |     165523      
      16  | 36:46.74 |    2:10.35   |      165524      |     175308      
      17  | 38:57.34 |    2:30.62   |      175309      |     186620      
      18  | 41:28.21 |    2:35.36   |      186621      |     198281      
      19  | 44:03.57 |    2:13.32   |      198282      |     208288      
      20  | 46:17.14 |    2:15.10   |      208289      |     218423      
      21  | 48:32.24 |    1:53.49   |      218424      |     226947      
      22  | 50:25.73 |    2:07.08   |      226948      |     236480      
      23  | 52:33.06 |    2:28.45   |      236481      |     247625      
      24  | 55:01.51 |    2:44.51   |      247626      |     259976      
      25  | 57:46.27 |    2:42.49   |      259977      |     272175      
      26  | 60:29.01 |    3:19.34   |      272176      |     287134      
      27  | 63:48.35 |    2:48.07   |      287135      |     299741      
      28  | 66:36.42 |    2:38.66   |      299742      |     311657      
      29  | 69:15.33 |    3:18.43   |      311658      |     326550      
      30  | 72:34.01 |    3:34.20   |      326551      |     342620      
      31  | 76:08.21 |    2:43.47   |      342621      |     354892      
      32  | 78:51.68 |    2:43.09   |      354893      |     367126      
      33  | 81:35.02 |    2:47.52   |      367127      |     379703      


Характеристики диапазона извлечения и сообщения об ошибках

Выбранный диапазон

     Имя файла C:\Users\Erik\Desktop\Новая папка\Herman's Hermits - 50th Anniversary Anthology CD2.wav

     Пиковый уровень 96.6 %
     Скорость извлечения 3.6 X
     Качество диапазона 100.0 %
     CRC теста AA6CE085
     CRC копии AA6CE085
     Копирование... OK

Ошибок не произошло

 
AccurateRip: сводка
 
Трек  1  : извлечено точно (доверие 22)  [C647350F]  (AR v2)
Трек  2  : извлечено точно (доверие 22)  [D52E261C]  (AR v2)
Трек  3  : извлечено точно (доверие 23)  [A6F5E59E]  (AR v2)
Трек  4  : извлечено точно (доверие 23)  [ED70CCDA]  (AR v2)
Трек  5  : извлечено точно (доверие 22)  [A572EA88]  (AR v2)
Трек  6  : извлечено точно (доверие 22)  [6BDA8B32]  (AR v2)
Трек  7  : извлечено точно (доверие 22)  [A0B7EE56]  (AR v2)
Трек  8  : извлечено точно (доверие 22)  [4AEE50CD]  (AR v2)
Трек  9  : извлечено точно (доверие 22)  [427D3988]  (AR v2)
Трек 10  : извлечено точно (доверие 22)  [3A4B048E]  (AR v2)
Трек 11  : извлечено точно (доверие 22)  [63564145]  (AR v2)
Трек 12  : извлечено точно (доверие 22)  [67BDD163]  (AR v2)
Трек 13  : извлечено точно (доверие 22)  [1E743C61]  (AR v2)
Трек 14  : извлечено точно (доверие 22)  [EA32BB4B]  (AR v2)
Трек 15  : извлечено точно (доверие 22)  [E2BE448B]  (AR v2)
Трек 16  : извлечено точно (доверие 22)  [EAE41021]  (AR v2)
Трек 17  : извлечено точно (доверие 22)  [1A01CD58]  (AR v2)
Трек 18  : извлечено точно (доверие 22)  [4D1F432E]  (AR v2)
Трек 19  : извлечено точно (доверие 22)  [C115D720]  (AR v2)
Трек 20  : извлечено точно (доверие 22)  [70B1DAA7]  (AR v2)
Трек 21  : извлечено точно (доверие 22)  [3F873883]  (AR v2)
Трек 22  : извлечено точно (доверие 22)  [05392C61]  (AR v2)
Трек 23  : извлечено точно (доверие 22)  [5B5D0D5D]  (AR v2)
Трек 24  : извлечено точно (доверие 22)  [5B6D0889]  (AR v2)
Трек 25  : извлечено точно (доверие 22)  [754283E6]  (AR v2)
Трек 26  : извлечено точно (доверие 22)  [6E5F2B3A]  (AR v2)
Трек 27  : извлечено точно (доверие 22)  [07B92187]  (AR v2)
Трек 28  : извлечено точно (доверие 22)  [7B1B5C89]  (AR v2)
Трек 29  : извлечено точно (доверие 22)  [C4B46BDC]  (AR v2)
Трек 30  : извлечено точно (доверие 22)  [13B9EE61]  (AR v2)
Трек 31  : извлечено точно (доверие 22)  [5B99F672]  (AR v2)
Трек 32  : извлечено точно (доверие 22)  [019299E8]  (AR v2)
Трек 33  : извлечено точно (доверие 22)  [3D2C128C]  (AR v2)
 
Все треки извлечены точно

Конец отчёта

---- CUETools DB Plugin V2.1.4

[CTDB TOCID: Ft8loWP2aMGG9fmf5mwpYxu9QHI-] found
Submit result: Ft8loWP2aMGG9fmf5mwpYxu9QHI- has been confirmed
Track | CTDB Status
  1   | (20/20) Accurately ripped
  2   | (20/20) Accurately ripped
  3   | (20/20) Accurately ripped
  4   | (20/20) Accurately ripped
  5   | (20/20) Accurately ripped
  6   | (20/20) Accurately ripped
  7   | (20/20) Accurately ripped
  8   | (20/20) Accurately ripped
  9   | (20/20) Accurately ripped
 10   | (20/20) Accurately ripped
 11   | (20/20) Accurately ripped
 12   | (20/20) Accurately ripped
 13   | (20/20) Accurately ripped
 14   | (20/20) Accurately ripped
 15   | (20/20) Accurately ripped
 16   | (20/20) Accurately ripped
 17   | (20/20) Accurately ripped
 18   | (20/20) Accurately ripped
 19   | (20/20) Accurately ripped
 20   | (20/20) Accurately ripped
 21   | (20/20) Accurately ripped
 22   | (20/20) Accurately ripped
 23   | (20/20) Accurately ripped
 24   | (20/20) Accurately ripped
 25   | (20/20) Accurately ripped
 26   | (20/20) Accurately ripped
 27   | (20/20) Accurately ripped
 28   | (20/20) Accurately ripped
 29   | (20/20) Accurately ripped
 30   | (20/20) Accurately ripped
 31   | (20/20) Accurately ripped
 32   | (20/20) Accurately ripped
 33   | (20/20) Accurately ripped


==== Контрольная сумма отчёта DF04CD651FD83CAAA3C652A567A3FE974574B6ADBDAA4E77D63CD8619006964F ====



Create a new paste based on this one


Comments: