[ create a new paste ] login | about

Link: http://codepad.org/TlQPOGCV    [ raw code | fork ]

Plain Text, pasted on Dec 19:
Exact Audio Copy V1.3 from 2. September 2016

EAC extraction logfile from 7. December 2018, 19:59

David Bowie / Tonight

Used drive  : PLEXTOR BD-R  PX-B950SA   Adapter: 1  ID: 1

Read mode               : Secure
Utilize accurate stream : Yes
Defeat audio cache      : Yes
Make use of C2 pointers : No

Read offset correction                      : 6
Overread into Lead-In and Lead-Out          : No
Fill up missing offset samples with silence : Yes
Delete leading and trailing silent blocks   : No
Null samples used in CRC calculations       : Yes
Used interface                              : Native Win32 interface for Win NT & 2000

Used output format : Internal WAV Routines
Sample format      : 44.100 Hz; 16 Bit; Stereo


TOC of the extracted CD

     Track |   Start  |  Length  | Start sector | End sector 
    ---------------------------------------------------------
        1  |  0:00.00 |  7:12.51 |         0    |    32450   
        2  |  7:12.51 |  4:11.06 |     32451    |    51281   
        3  | 11:23.57 |  3:09.29 |     51282    |    65485   
        4  | 14:33.11 |  3:45.00 |     65486    |    82360   
        5  | 18:18.11 |  3:12.50 |     82361    |    96810   
        6  | 21:30.61 |  3:11.68 |     96811    |   111203   
        7  | 24:42.54 |  4:58.53 |    111204    |   133606   
        8  | 29:41.32 |  2:35.33 |    133607    |   145264   
        9  | 32:16.65 |  3:34.11 |    145265    |   161325   


Range status and errors

Selected range

     Filename C:\David Bowie\2018 Loving The Alien (11CD Box Set Parlophone Records)\1984 Tonight\David Bowie - Tonight.wav

     Peak level 99.3 %
     Extraction speed 6.3 X
     Range quality 99.9 %
     Test CRC E4E9934A
     Copy CRC E4E9934A
     Copy OK

No errors occurred

 
AccurateRip summary
 
Track  1  accurately ripped (confidence 14)  [94FC982B]  (AR v2)
Track  2  accurately ripped (confidence 14)  [23217536]  (AR v2)
Track  3  accurately ripped (confidence 14)  [43BDE9E5]  (AR v2)
Track  4  accurately ripped (confidence 14)  [F558DAE4]  (AR v2)
Track  5  accurately ripped (confidence 14)  [6A514A00]  (AR v2)
Track  6  accurately ripped (confidence 14)  [E66B39BD]  (AR v2)
Track  7  accurately ripped (confidence 14)  [34EE5B2E]  (AR v2)
Track  8  accurately ripped (confidence 14)  [63AEBAA8]  (AR v2)
Track  9  accurately ripped (confidence 14)  [BE58E0CD]  (AR v2)
 
All tracks accurately ripped

End of status report

---- CUETools DB Plugin V2.1.6

[CTDB TOCID: QVH4455SAIz_QZc..He.IqS4j4c-] found
Submit result: QVH4455SAIz_QZc..He.IqS4j4c- has been confirmed
Track | CTDB Status
  1   | (67/69) Accurately ripped
  2   | (67/69) Accurately ripped
  3   | (67/69) Accurately ripped
  4   | (67/69) Accurately ripped
  5   | (67/69) Accurately ripped
  6   | (67/69) Accurately ripped
  7   | (67/69) Accurately ripped
  8   | (67/69) Accurately ripped
  9   | (67/69) Accurately ripped


==== Log checksum C46918A63FCA8E7F6597C6BD60850BBE6682C457346384860A2009A27261CA4A ====



Create a new paste based on this one


Comments: