[ create a new paste ] login | about

Link: http://codepad.org/ToZK4Klh    [ raw code | fork ]

Plain Text, pasted on Jun 17:
foobar2000 1.3.17 / Dynamic Range Meter 1.1.1
log date: 2018-06-17 07:16:59

--------------------------------------------------------------------------------
Analyzed: Sting / Sacred Love
--------------------------------------------------------------------------------

DR         Peak         RMS     Duration Track
--------------------------------------------------------------------------------
DR12      -0.66 dB   -19.00 dB      4:50 01-Inside
DR13      -0.81 dB   -18.42 dB      4:38 02-Send Your Love
DR13      -1.87 dB   -20.56 dB      5:32 03-Whenever I Say Your Name
DR13      -3.48 dB   -19.82 dB      5:44 04-Dead Man's Rope
DR11      -2.05 dB   -17.32 dB      7:50 05-Never Coming Home
DR13      -3.11 dB   -20.48 dB      4:00 06-Stolen Car
DR13      -1.49 dB   -18.49 dB      5:11 07-Forget About The Future
DR13      -0.01 dB   -17.66 dB      5:32 08-This War
DR14      -3.51 dB   -21.74 dB      6:17 09-The Book Of My Life
DR13      -1.47 dB   -18.85 dB      5:56 10-Sacred Love
DR13      -1.04 dB   -18.79 dB      3:17 11-Send Your Love (Dave Aude Remix Edit Version)
DR14      -4.00 dB   -24.93 dB      2:14 12-Shape Of My Heart (from '...All This Time')
--------------------------------------------------------------------------------

Number of tracks:  12
Official DR value: DR13

Samplerate:        88200 Hz
Channels:          6
Bits per sample:   24
Bitrate:           6901 kbps
Codec:             FLAC
================================================================================




Create a new paste based on this one


Comments: