[ create a new paste ] login | about

Link: http://codepad.org/TpHk14Qf    [ raw code | fork ]

Plain Text, pasted on Jun 10:
EAC extraction logfile from 16. August 2008, 13:51 for CD
Pat Benatar / In the Heat of the Night

Used drive  : PIONEER DVD-RW  DVR-112D   Adapter: 0  ID: 0
Read mode   : Secure with NO C2, accurate stream, disable cache
Read offset correction : 48
Overread into Lead-In and Lead-Out : No

Used output format : C:\Program Files\Exact Audio Copy\flac-1.1.4-win\bin\flac.exe   (User Defined Encoder)
                     128 kBit/s
                     Additional command line options : -8 -V -T "ARTIST=%a" -T "TITLE=%t" -T "ALBUM=%g" -T "DATE=%y" -T "TRACKNUMBER=%n" -T "GENRE=%m" -T "COMMENT=EAC Flac 1.1.4 -8" %s

Other options      : 
    Fill up missing offset samples with silence : Yes
    Delete leading and trailing silent blocks : No
    Installed external ASPI interface


Track  1
     Filename C:\Program Files\Exact Audio Copy\Pat Benatar - 1979 - In the Heat of the Night\01 - Heartbreaker.wav

     Pre-gap length  0:00:02.00

     Peak level 100.0 %
     Track quality 100.0 %
     Test CRC D15672A7
     Copy CRC D15672A7
     Copy OK

Track  2
     Filename C:\Program Files\Exact Audio Copy\Pat Benatar - 1979 - In the Heat of the Night\02 - I Need a Lover.wav

     Pre-gap length  0:00:00.06

     Peak level 100.0 %
     Track quality 100.0 %
     Test CRC 6D14CCC1
     Copy CRC 6D14CCC1
     Copy OK

Track  3
     Filename C:\Program Files\Exact Audio Copy\Pat Benatar - 1979 - In the Heat of the Night\03 - If You Think You Know How to Love Me.wav

     Pre-gap length  0:00:01.37

     Peak level 100.0 %
     Track quality 100.0 %
     Test CRC 3EE99503
     Copy CRC 3EE99503
     Copy OK

Track  4
     Filename C:\Program Files\Exact Audio Copy\Pat Benatar - 1979 - In the Heat of the Night\04 - In the Heat of the Night.wav

     Pre-gap length  0:00:02.13

     Peak level 100.0 %
     Track quality 100.0 %
     Test CRC C734A627
     Copy CRC C734A627
     Copy OK

Track  5
     Filename C:\Program Files\Exact Audio Copy\Pat Benatar - 1979 - In the Heat of the Night\05 - My Clone Sleeps Alone.wav

     Pre-gap length  0:00:01.04

     Peak level 100.0 %
     Track quality 100.0 %
     Test CRC 576530F5
     Copy CRC 576530F5
     Copy OK

Track  6
     Filename C:\Program Files\Exact Audio Copy\Pat Benatar - 1979 - In the Heat of the Night\06 - We Live for Love.wav

     Pre-gap length  0:00:00.69

     Peak level 100.0 %
     Track quality 100.0 %
     Test CRC 858A318F
     Copy CRC 858A318F
     Copy OK

Track  7
     Filename C:\Program Files\Exact Audio Copy\Pat Benatar - 1979 - In the Heat of the Night\07 - Rated X.wav

     Pre-gap length  0:00:00.82

     Peak level 100.0 %
     Track quality 100.0 %
     Test CRC E3103F41
     Copy CRC E3103F41
     Copy OK

Track  8
     Filename C:\Program Files\Exact Audio Copy\Pat Benatar - 1979 - In the Heat of the Night\08 - Don't Let It Show.wav

     Pre-gap length  0:00:01.73

     Peak level 100.0 %
     Track quality 100.0 %
     Test CRC 23D0A056
     Copy CRC 23D0A056
     Copy OK

Track  9
     Filename C:\Program Files\Exact Audio Copy\Pat Benatar - 1979 - In the Heat of the Night\09 - No You Don't.wav

     Pre-gap length  0:00:00.77

     Peak level 100.0 %
     Track quality 100.0 %
     Test CRC 4D456E98
     Copy CRC 4D456E98
     Copy OK

Track 10
     Filename C:\Program Files\Exact Audio Copy\Pat Benatar - 1979 - In the Heat of the Night\10 - So Sincere.wav

     Pre-gap length  0:00:00.53

     Peak level 100.0 %
     Track quality 100.0 %
     Test CRC 453390EB
     Copy CRC 453390EB
     Copy OK

No errors occured


End of status report



Create a new paste based on this one


Comments: