[ create a new paste ] login | about

Link: http://codepad.org/TpnFBvIm    [ raw code | fork ]

Plain Text, pasted on Jul 23:
foobar2000 1.5 / Dynamic Range Meter 1.1.1
log date: 2020-07-21 02:04:01

--------------------------------------------------------------------------------
Analyzed: Fiona Joy Hawkins / 600 Years In A Moment
--------------------------------------------------------------------------------

DR         Peak         RMS     Duration Track
--------------------------------------------------------------------------------
DR13      -7.59 dB   -28.92 dB      6:25 01-600 Years
DR13      -6.07 dB   -27.23 dB      5:36 02-Naked Love
DR12      -6.01 dB   -26.29 dB      5:55 03-The Journey
DR13      -9.30 dB   -30.17 dB      4:06 04-Earthbound
DR11      -6.69 dB   -25.29 dB      5:38 05-Gliding
DR12      -6.60 dB   -25.19 dB      6:08 06-Tango On Wednesday
DR12      -6.56 dB   -25.67 dB      5:52 07-Running On Joy
DR13      -6.50 dB   -26.93 dB      4:43 08-Ancient Albatross
DR12      -7.05 dB   -27.44 dB      6:23 09-The Lost Ballerina
DR12      -7.06 dB   -26.18 dB      4:18 10-Antarctica
DR12      -6.59 dB   -26.68 dB      5:48 11-Captured Freedom
DR13      -8.62 dB   -31.09 dB      4:55 12-Forgiveness
--------------------------------------------------------------------------------

Number of tracks:  12
Official DR value: DR12

Samplerate:        2822400 Hz / PCM Samplerate: 176400 Hz
Channels:          6
Bits per sample:   1
Bitrate:           16934 kbps
Codec:             DST64
================================================================================

--------------------------------------------------------------------------------
Analyzed: Fiona Joy Hawkins / 600 Years In A Moment
--------------------------------------------------------------------------------

DR         Peak         RMS     Duration Track
--------------------------------------------------------------------------------
DR13      -6.34 dB   -24.19 dB      6:25 01-600 Years
DR13      -5.01 dB   -22.50 dB      5:36 02-Naked Love
DR13      -5.28 dB   -21.90 dB      5:55 03-The Journey
DR13      -7.86 dB   -25.39 dB      4:06 04-Earthbound
DR12      -5.40 dB   -20.94 dB      5:38 05-Gliding
DR12      -5.07 dB   -20.26 dB      6:08 06-Tango On Wednesday
DR13      -5.13 dB   -20.86 dB      5:52 07-Running On Joy
DR14      -5.54 dB   -22.27 dB      4:43 08-Ancient Albatross
DR13      -5.14 dB   -22.72 dB      6:23 09-The Lost Ballerina
DR12      -5.71 dB   -21.54 dB      4:18 10-Antarctica
DR14      -5.03 dB   -22.42 dB      5:48 11-Captured Freedom
DR14      -6.21 dB   -25.72 dB      4:55 12-Forgiveness
--------------------------------------------------------------------------------

Number of tracks:  12
Official DR value: DR13

Samplerate:        2822400 Hz / PCM Samplerate: 176400 Hz
Channels:          2
Bits per sample:   1
Bitrate:           5645 kbps
Codec:             DST64
================================================================================




Create a new paste based on this one


Comments: