[ create a new paste ] login | about

Link: http://codepad.org/TrNBnC75    [ raw code | fork ]

Plain Text, pasted on Mar 7:
foobar2000 1.5 / Dynamic Range Meter 1.1.1
log date: 2020-03-07 19:10:10

--------------------------------------------------------------------------------
Analyzed: Sarah Brightman / Eden
--------------------------------------------------------------------------------

DR         Peak         RMS     Duration Track
--------------------------------------------------------------------------------
DR9       -1.09 dB   -15.92 dB      3:12 01-In Paradisum
DR8       -0.21 dB   -11.86 dB      4:00 02-Eden
DR8       -0.21 dB   -12.90 dB      2:58 03-So Many Things
DR10      -0.45 dB   -14.01 dB      3:19 04-Anytime, Anywhere
DR8       -1.37 dB   -15.37 dB      3:15 05-Bailero
DR10      -1.51 dB   -15.59 dB      3:42 06-Dust In The Wind
DR8       -0.47 dB   -13.42 dB      4:29 07-Il Mio Cuore Va
DR8       -0.83 dB   -13.46 dB      4:01 08-Deliver Me
DR8       -0.45 dB   -14.07 dB      3:40 09-Un Jour Il Viendra
DR9       -0.89 dB   -15.73 dB      3:39 10-Nella Fantasia
DR9       -0.50 dB   -16.40 dB      4:10 11-Tu
DR8       -0.79 dB   -14.00 dB      3:31 12-Lascia Ch'io Pianga
DR8       -0.21 dB   -13.13 dB      4:56 13-Only An Ocean Away
DR8       -0.67 dB   -13.91 dB      3:20 14-Scene D'Amour
DR10      -0.53 dB   -17.39 dB      3:06 15-Nessun Dorma
DR7       -0.41 dB   -13.53 dB      4:11 16-The Last Words You Said
--------------------------------------------------------------------------------

Number of tracks:  16
Official DR value: DR8

Samplerate:        88200 Hz
Channels:          6
Bits per sample:   24
Bitrate:           7381 kbps
Codec:             FLAC
================================================================================




Create a new paste based on this one


Comments: