[ create a new paste ] login | about

Link: http://codepad.org/TrdmfpRN    [ raw code | fork ]

Plain Text, pasted on Jul 7:
Exact Audio Copy V0.99 prebeta 3 from 28. July 2007

EAC extraction logfile from 23. February 2008, 17:24

Various / The Late '50s (Disc 1)

Used drive  : _NEC    DVD_RW ND-3500AG   Adapter: 0  ID: 2

Read mode               : Secure
Utilize accurate stream : Yes
Defeat audio cache      : Yes
Make use of C2 pointers : No

Read offset correction                      : 48
Overread into Lead-In and Lead-Out          : No
Fill up missing offset samples with silence : Yes
Delete leading and trailing silent blocks   : No
Null samples used in CRC calculations       : Yes
Used interface                              : Installed external ASPI interface

Used output format : Internal WAV Routines
Sample format      : 44.100 Hz; 16 Bit; Stereo


TOC of the extracted CD

     Track |   Start  |  Length  | Start sector | End sector 
    ---------------------------------------------------------
        1  |  0:00.00 |  2:13.45 |         0    |    10019   
        2  |  2:13.45 |  2:51.30 |     10020    |    22874   
        3  |  5:05.00 |  3:00.20 |     22875    |    36394   
        4  |  8:05.20 |  2:37.30 |     36395    |    48199   
        5  | 10:42.50 |  3:02.20 |     48200    |    61869   
        6  | 13:44.70 |  2:25.42 |     61870    |    72786   
        7  | 16:10.37 |  2:38.38 |     72787    |    84674   
        8  | 18:49.00 |  2:59.25 |     84675    |    98124   
        9  | 21:48.25 |  3:01.00 |     98125    |   111699   
       10  | 24:49.25 |  2:33.65 |    111700    |   123239   
       11  | 27:23.15 |  3:00.20 |    123240    |   136759   
       12  | 30:23.35 |  2:37.60 |    136760    |   148594   
       13  | 33:01.20 |  2:59.20 |    148595    |   162039   
       14  | 36:00.40 |  2:17.60 |    162040    |   172374   
       15  | 38:18.25 |  3:49.67 |    172375    |   189616   
       16  | 42:08.17 |  2:28.58 |    189617    |   200774   
       17  | 44:37.00 |  2:26.25 |    200775    |   211749   
       18  | 47:03.25 |  2:37.37 |    211750    |   223561   


Range status and errors

Selected range

     Filename K:\Music\The Late '50s\Various - The Late '50s (Disc 1).wav

     Peak level 100.0 %
     Range quality 100.0 %
     Copy CRC CB70FEBD
     Copy OK

No errors occurred

End of status report



Create a new paste based on this one


Comments: