[ create a new paste ] login | about

Link: http://codepad.org/Ts1efwo7    [ raw code | fork ]

Plain Text, pasted on May 27:
General
Complete name                  : 2015. ...To The Rising Sun. In Tokyo (2015, Edel, 0210547EMU, Germany, 2CD+DVD)\DVD\VIDEO_TS\VTS_01_1.VOB
Format                         : MPEG-PS
File size                      : 1 024 MiB
Duration                       : 16mn 12s
Overall bit rate mode          : Variable
Overall bit rate               : 8 836 Kbps

Video
ID                             : 224 (0xE0)
Format                         : MPEG Video
Format version                 : Version 2
Format profile                 : Main@Main
Format settings, BVOP          : Yes
Format settings, Matrix        : Custom
Format settings, GOP           : Variable
Duration                       : 16mn 12s
Bit rate mode                  : Variable
Bit rate                       : 8 020 Kbps
Maximum bit rate               : 9 800 Kbps
Width                          : 720 pixels
Height                         : 480 pixels
Display aspect ratio           : 16:9
Frame rate                     : 29.970 (30000/1001) fps
Standard                       : NTSC
Color space                    : YUV
Chroma subsampling             : 4:2:0
Bit depth                      : 8 bits
Scan type                      : Progressive
Scan order                     : Bottom Field First
Compression mode               : Lossy
Bits/(Pixel*Frame)             : 0.774
Time code of first frame       : 01:00:00:00
Time code source               : Group of pictures header
GOP, Open/Closed               : Closed
Stream size                    : 929 MiB (91%)

Audio #1
ID                             : 189 (0xBD)-128 (0x80)
Format                         : AC-3
Format/Info                    : Audio Coding 3
Mode extension                 : CM (complete main)
Format settings, Endianness    : Big
Muxing mode                    : DVD-Video
Duration                       : 16mn 11s
Bit rate mode                  : Constant
Bit rate                       : 192 Kbps
Channel(s)                     : 2 channels
Channel positions              : Front: L R
Sampling rate                  : 48.0 KHz
Frame rate                     : 31.250 fps (1536 spf)
Compression mode               : Lossy
Stream size                    : 22.2 MiB (2%)

Audio #2
ID                             : 189 (0xBD)-129 (0x81)
Format                         : AC-3
Format/Info                    : Audio Coding 3
Mode extension                 : CM (complete main)
Format settings, Endianness    : Big
Muxing mode                    : DVD-Video
Duration                       : 16mn 11s
Bit rate mode                  : Constant
Bit rate                       : 448 Kbps
Channel(s)                     : 6 channels
Channel positions              : Front: L C R, Side: L R, LFE
Sampling rate                  : 48.0 KHz
Frame rate                     : 31.250 fps (1536 spf)
Compression mode               : Lossy
Stream size                    : 51.9 MiB (5%)

Menu




Create a new paste based on this one


Comments: