[ create a new paste ] login | about

Link: http://codepad.org/TwCO8VRA    [ raw code | fork ]

Plain Text, pasted on Mar 19:
Disc Title:     THE_BRUCE_MCMOUSE_SHOW
Disc Size:      18,090,096,640 bytes
Protection:     AACS(v0)
BD-Java:        No
BDInfo:         0.5.8.7 (compatible layout created by DVDFab 11.0.1.0)

Notes:          

BDINFO HOME:
  Cinema Squid (original standalone tool)
    http://www.cinemasquid.com/blu-ray/tools/bdinfo
  DVDFab
    http://www.dvdfab.cn/bdinfo.htm

INCLUDES FORUMS REPORT FOR:
  AVS Forum Blu-ray Audio and Video Specifications Thread
    http://www.avsforum.com/avs-vb/showthread.php?t=1155731

WARNING: Report is incomplete because: Scan has not been run.

********************
PLAYLIST: 00000.MPLS  
********************

<--- BEGIN FORUMS PASTE --->
[code]
                                                                                                                  Total   Video                                             
Title                                                           Codec   Length   Movie Size      Disc Size       Bitrate Bitrate Main Audio Track                          Secondary Audio Track
-----                                                           ------  -------  --------------  --------------  ------- ------- ------------------                        ---------------------
00000.MPLS                                                      AVC     0:52:50  17,782,339,968  18,090,096,640  44.87   0.00    LPCM 2.0                                  DTS-HD Master 5.1
[/code]

[code]

DISC INFO:

Disc Title:     THE_BRUCE_MCMOUSE_SHOW
Disc Size:      18,090,096,640 bytes
Protection:     AACS(v0)
BD-Java:        No
BDInfo:         0.5.8.7 (compatible layout created by DVDFab 11.0.1.0)

PLAYLIST REPORT:

Name:                   00000.MPLS  
Length:                 0:52:50.600 (h:m:s.ms)
Size:                   17,782,339,968 bytes
Total Bitrate:          44.87 Mbps

VIDEO:

Codec                   Bitrate             Description     
-----                   -------             -----------     
MPEG-4 AVC Video        0 kbps              1080i / 29.970 fps / 16:9 / High Profile 4.1 / 

AUDIO:

Codec                           Language        Bitrate         Description     
-----                           --------        -------         -----------     
LPCM Audio                      English         4608 kbps       2.0 / 96 kHz / 4608 kbps / 24-bit
DTS-HD Master Audio             English         0 kbps          5.1 / 96 kHz / 24-bit (DTS Core: 5.1 / 48 kHz / 768 kbps / 24-bit)

FILES:

Name            Time In         Length          Size            Total Bitrate   
----            -------         ------          ----            -------------   
00000.M2TS      0:00:00.000     0:52:27.010     17,686,806,912  44,961 kbps     
00004.M2TS      0:52:27.010     0:00:23.590     95,533,056      32,397 kbps     

CHAPTERS:

Number          Time In         Length          Avg Video Rate  Max 1-Sec Rate  Max 1-Sec Time  Max 5-Sec Rate  Max 5-Sec Time  Max 10Sec Rate  Max 10Sec Time  Avg Frame Size  Max Frame Size  Max Frame Time  
------          -------         ------          --------------  --------------  --------------  --------------  --------------  --------------  --------------  --------------  --------------  --------------  
1               0:00:00.000     0:01:44.370     0 kbps          0 kbps          00:00:00.000    0 kbps          00:00:00.000    0 kbps          00:00:00.000    0 bytes         0 bytes         00:00:00.000    
2               0:01:44.370     0:04:53.860     0 kbps          0 kbps          00:00:00.000    0 kbps          00:00:00.000    0 kbps          00:00:00.000    0 bytes         0 bytes         00:00:00.000    
3               0:06:38.231     0:03:24.637     0 kbps          0 kbps          00:00:00.000    0 kbps          00:00:00.000    0 kbps          00:00:00.000    0 bytes         0 bytes         00:00:00.000    
4               0:10:02.868     0:02:31.985     0 kbps          0 kbps          00:00:00.000    0 kbps          00:00:00.000    0 kbps          00:00:00.000    0 bytes         0 bytes         00:00:00.000    
5               0:12:34.854     0:04:31.638     0 kbps          0 kbps          00:00:00.000    0 kbps          00:00:00.000    0 kbps          00:00:00.000    0 bytes         0 bytes         00:00:00.000    
6               0:17:06.492     0:05:05.304     0 kbps          0 kbps          00:00:00.000    0 kbps          00:00:00.000    0 kbps          00:00:00.000    0 bytes         0 bytes         00:00:00.000    
7               0:22:11.797     0:02:44.164     0 kbps          0 kbps          00:00:00.000    0 kbps          00:00:00.000    0 kbps          00:00:00.000    0 bytes         0 bytes         00:00:00.000    
8               0:24:55.961     0:03:24.671     0 kbps          0 kbps          00:00:00.000    0 kbps          00:00:00.000    0 kbps          00:00:00.000    0 bytes         0 bytes         00:00:00.000    
9               0:28:20.632     0:02:43.096     0 kbps          0 kbps          00:00:00.000    0 kbps          00:00:00.000    0 kbps          00:00:00.000    0 bytes         0 bytes         00:00:00.000    
10              0:31:03.728     0:04:40.847     0 kbps          0 kbps          00:00:00.000    0 kbps          00:00:00.000    0 kbps          00:00:00.000    0 bytes         0 bytes         00:00:00.000    
11              0:35:44.575     0:01:27.053     0 kbps          0 kbps          00:00:00.000    0 kbps          00:00:00.000    0 kbps          00:00:00.000    0 bytes         0 bytes         00:00:00.000    
12              0:37:11.629     0:04:04.777     0 kbps          0 kbps          00:00:00.000    0 kbps          00:00:00.000    0 kbps          00:00:00.000    0 bytes         0 bytes         00:00:00.000    
13              0:41:16.407     0:04:09.582     0 kbps          0 kbps          00:00:00.000    0 kbps          00:00:00.000    0 kbps          00:00:00.000    0 bytes         0 bytes         00:00:00.000    
14              0:45:25.989     0:04:57.196     0 kbps          0 kbps          00:00:00.000    0 kbps          00:00:00.000    0 kbps          00:00:00.000    0 bytes         0 bytes         00:00:00.000    
15              0:50:23.186     0:02:27.413     0 kbps          0 kbps          00:00:00.000    0 kbps          00:00:00.000    0 kbps          00:00:00.000    0 bytes         0 bytes         00:00:00.000    

STREAM DIAGNOSTICS:

File            PID             Type            Codec           Language                Seconds                 Bitrate                 Bytes           Packets         
----            ---             ----            -----           --------                --------------          --------------          -------------   -----           
00000.M2TS      4113 (0x1011)   0x1B            AVC                                     0.00                    0                       0               0               
00000.M2TS      4352 (0x1100)   0x80            LPCM            eng (English)           0.00                    0                       0               0               
00000.M2TS      4353 (0x1101)   0x86            DTS-HD MA       eng (English)           0.00                    0                       0               0               
00004.M2TS      4113 (0x1011)   0x1B            AVC                                     0.00                    0                       0               0               
00004.M2TS      4352 (0x1100)   0x80            LPCM            eng (English)           0.00                    0                       0               0               
00004.M2TS      4353 (0x1101)   0x86            DTS-HD MA       eng (English)           0.00                    0                       0               0               

[/code]
<---- END FORUMS PASTE ---->

QUICK SUMMARY:

Disc Title: THE_BRUCE_MCMOUSE_SHOW
Disc Size: 18,090,096,640 bytes
Protection: AACS(v0)
BD-Java: No
Playlist: 00000.MPLS  
Size: 17,782,339,968 bytes
Length: 0:52:50.600
Total Bitrate: 44.87 Mbps
Video: MPEG-4 AVC Video / 0 kbps / 1080i / 29.970 fps / 16:9 / High Profile 4.1 / 
Audio: English / LPCM Audio / 2.0 / 96 kHz / 4608 kbps / 24-bit
Audio: English / DTS-HD Master Audio / 5.1 / 96 kHz / 24-bit (DTS Core: 5.1 / 48 kHz / 768 kbps / 24-bit)


********************
PLAYLIST: 00001.MPLS  
********************

<--- BEGIN FORUMS PASTE --->
[code]
                                                                                                                  Total   Video                                             
Title                                                           Codec   Length   Movie Size      Disc Size       Bitrate Bitrate Main Audio Track                          Secondary Audio Track
-----                                                           ------  -------  --------------  --------------  ------- ------- ------------------                        ---------------------
00001.MPLS                                                      AVC     0:20:22  4,530,272,256   18,090,096,640  29.65   0.00    LPCM 2.0                                  
[/code]

[code]

DISC INFO:

Disc Title:     THE_BRUCE_MCMOUSE_SHOW
Disc Size:      18,090,096,640 bytes
Protection:     AACS(v0)
BD-Java:        No
BDInfo:         0.5.8.7 (compatible layout created by DVDFab 11.0.1.0)

PLAYLIST REPORT:

Name:                   00001.MPLS  
Length:                 0:20:22.421 (h:m:s.ms)
Size:                   4,530,272,256 bytes
Total Bitrate:          29.65 Mbps

VIDEO:

Codec                   Bitrate             Description     
-----                   -------             -----------     
MPEG-4 AVC Video        0 kbps              1080i / 29.970 fps / 16:9 / High Profile 4.1 / 

AUDIO:

Codec                           Language        Bitrate         Description     
-----                           --------        -------         -----------     
LPCM Audio                      English         2304 kbps       2.0 / 48 kHz / 2304 kbps / 24-bit

FILES:

Name            Time In         Length          Size            Total Bitrate   
----            -------         ------          ----            -------------   
00002.M2TS      0:00:00.000     0:00:28.428     105,265,152     29,622 kbps     
00003.M2TS      0:00:28.428     0:00:28.428     105,357,312     29,648 kbps     
00003.M2TS      0:00:56.856     0:00:28.428     105,357,312     29,648 kbps     
00003.M2TS      0:01:25.285     0:00:28.428     105,357,312     29,648 kbps     
00003.M2TS      0:01:53.713     0:00:28.428     105,357,312     29,648 kbps     
00003.M2TS      0:02:22.142     0:00:28.428     105,357,312     29,648 kbps     
00003.M2TS      0:02:50.570     0:00:28.428     105,357,312     29,648 kbps     
00003.M2TS      0:03:18.998     0:00:28.428     105,357,312     29,648 kbps     
00003.M2TS      0:03:47.427     0:00:28.428     105,357,312     29,648 kbps     
00003.M2TS      0:04:15.855     0:00:28.428     105,357,312     29,648 kbps     
00003.M2TS      0:04:44.284     0:00:28.428     105,357,312     29,648 kbps     
00003.M2TS      0:05:12.712     0:00:28.428     105,357,312     29,648 kbps     
00003.M2TS      0:05:41.140     0:00:28.428     105,357,312     29,648 kbps     
00003.M2TS      0:06:09.569     0:00:28.428     105,357,312     29,648 kbps     
00003.M2TS      0:06:37.997     0:00:28.428     105,357,312     29,648 kbps     
00003.M2TS      0:07:06.426     0:00:28.428     105,357,312     29,648 kbps     
00003.M2TS      0:07:34.854     0:00:28.428     105,357,312     29,648 kbps     
00003.M2TS      0:08:03.282     0:00:28.428     105,357,312     29,648 kbps     
00003.M2TS      0:08:31.711     0:00:28.428     105,357,312     29,648 kbps     
00003.M2TS      0:09:00.139     0:00:28.428     105,357,312     29,648 kbps     
00003.M2TS      0:09:28.568     0:00:28.428     105,357,312     29,648 kbps     
00003.M2TS      0:09:56.996     0:00:28.428     105,357,312     29,648 kbps     
00003.M2TS      0:10:25.424     0:00:28.428     105,357,312     29,648 kbps     
00003.M2TS      0:10:53.853     0:00:28.428     105,357,312     29,648 kbps     
00003.M2TS      0:11:22.281     0:00:28.428     105,357,312     29,648 kbps     
00003.M2TS      0:11:50.710     0:00:28.428     105,357,312     29,648 kbps     
00003.M2TS      0:12:19.138     0:00:28.428     105,357,312     29,648 kbps     
00003.M2TS      0:12:47.566     0:00:28.428     105,357,312     29,648 kbps     
00003.M2TS      0:13:15.995     0:00:28.428     105,357,312     29,648 kbps     
00003.M2TS      0:13:44.423     0:00:28.428     105,357,312     29,648 kbps     
00003.M2TS      0:14:12.852     0:00:28.428     105,357,312     29,648 kbps     
00003.M2TS      0:14:41.280     0:00:28.428     105,357,312     29,648 kbps     
00003.M2TS      0:15:09.708     0:00:28.428     105,357,312     29,648 kbps     
00003.M2TS      0:15:38.137     0:00:28.428     105,357,312     29,648 kbps     
00003.M2TS      0:16:06.565     0:00:28.428     105,357,312     29,648 kbps     
00003.M2TS      0:16:34.994     0:00:28.428     105,357,312     29,648 kbps     
00003.M2TS      0:17:03.422     0:00:28.428     105,357,312     29,648 kbps     
00003.M2TS      0:17:31.850     0:00:28.428     105,357,312     29,648 kbps     
00003.M2TS      0:18:00.279     0:00:28.428     105,357,312     29,648 kbps     
00003.M2TS      0:18:28.707     0:00:28.428     105,357,312     29,648 kbps     
00003.M2TS      0:18:57.136     0:00:28.428     105,357,312     29,648 kbps     
00003.M2TS      0:19:25.564     0:00:28.428     105,357,312     29,648 kbps     
00003.M2TS      0:19:53.992     0:00:28.428     105,357,312     29,648 kbps     

CHAPTERS:

Number          Time In         Length          Avg Video Rate  Max 1-Sec Rate  Max 1-Sec Time  Max 5-Sec Rate  Max 5-Sec Time  Max 10Sec Rate  Max 10Sec Time  Avg Frame Size  Max Frame Size  Max Frame Time  
------          -------         ------          --------------  --------------  --------------  --------------  --------------  --------------  --------------  --------------  --------------  --------------  
1               0:00:00.000     0:20:22.421     0 kbps          0 kbps          00:00:00.000    0 kbps          00:00:00.000    0 kbps          00:00:00.000    0 bytes         0 bytes         00:00:00.000    

STREAM DIAGNOSTICS:

File            PID             Type            Codec           Language                Seconds                 Bitrate                 Bytes           Packets         
----            ---             ----            -----           --------                --------------          --------------          -------------   -----           
00002.M2TS      4113 (0x1011)   0x1B            AVC                                     0.00                    0                       0               0               
00002.M2TS      4352 (0x1100)   0x80            LPCM            eng (English)           0.00                    0                       0               0               
00003.M2TS      4113 (0x1011)   0x1B            AVC                                     0.00                    0                       0               0               
00003.M2TS      4352 (0x1100)   0x80            LPCM            eng (English)           0.00                    0                       0               0               

[/code]
<---- END FORUMS PASTE ---->

QUICK SUMMARY:

Disc Title: THE_BRUCE_MCMOUSE_SHOW
Disc Size: 18,090,096,640 bytes
Protection: AACS(v0)
BD-Java: No
Playlist: 00001.MPLS  
Size: 4,530,272,256 bytes
Length: 0:20:22.421
Total Bitrate: 29.65 Mbps
Video: MPEG-4 AVC Video / 0 kbps / 1080i / 29.970 fps / 16:9 / High Profile 4.1 / 
Audio: English / LPCM Audio / 2.0 / 48 kHz / 2304 kbps / 24-bit


********************
PLAYLIST: 00003.MPLS  
********************

<--- BEGIN FORUMS PASTE --->
[code]
                                                                                                                  Total   Video                                             
Title                                                           Codec   Length   Movie Size      Disc Size       Bitrate Bitrate Main Audio Track                          Secondary Audio Track
-----                                                           ------  -------  --------------  --------------  ------- ------- ------------------                        ---------------------
00003.MPLS                                                      AVC     0:00:26  56,315,904      18,090,096,640  16.96   0.00    LPCM 2.0                                  
[/code]

[code]

DISC INFO:

Disc Title:     THE_BRUCE_MCMOUSE_SHOW
Disc Size:      18,090,096,640 bytes
Protection:     AACS(v0)
BD-Java:        No
BDInfo:         0.5.8.7 (compatible layout created by DVDFab 11.0.1.0)

PLAYLIST REPORT:

Name:                   00003.MPLS  
Length:                 0:00:26.568 (h:m:s.ms)
Size:                   56,315,904 bytes
Total Bitrate:          16.96 Mbps

VIDEO:

Codec                   Bitrate             Description     
-----                   -------             -----------     
MPEG-4 AVC Video        0 kbps              1080p / 23.976 fps / 16:9 / High Profile 4.1 / 

AUDIO:

Codec                           Language        Bitrate         Description     
-----                           --------        -------         -----------     
LPCM Audio                      English         2304 kbps       2.0 / 48 kHz / 2304 kbps / 24-bit

FILES:

Name            Time In         Length          Size            Total Bitrate   
----            -------         ------          ----            -------------   
00006.M2TS      0:00:00.000     0:00:07.007     15,298,560      17,466 kbps     
00009.M2TS      0:00:07.007     0:00:10.969     39,149,568      28,552 kbps     
00007.M2TS      0:00:17.976     0:00:07.590     1,843,200       1,942 kbps      
00008.M2TS      0:00:25.567     0:00:01.000     24,576          196 kbps        

CHAPTERS:

Number          Time In         Length          Avg Video Rate  Max 1-Sec Rate  Max 1-Sec Time  Max 5-Sec Rate  Max 5-Sec Time  Max 10Sec Rate  Max 10Sec Time  Avg Frame Size  Max Frame Size  Max Frame Time  
------          -------         ------          --------------  --------------  --------------  --------------  --------------  --------------  --------------  --------------  --------------  --------------  
1               0:00:00.000     0:00:07.007     0 kbps          0 kbps          00:00:00.000    0 kbps          00:00:00.000    0 kbps          00:00:00.000    0 bytes         0 bytes         00:00:00.000    
2               0:00:07.007     0:00:10.969     0 kbps          0 kbps          00:00:00.000    0 kbps          00:00:00.000    0 kbps          00:00:00.000    0 bytes         0 bytes         00:00:00.000    
3               0:00:17.976     0:00:08.591     0 kbps          0 kbps          00:00:00.000    0 kbps          00:00:00.000    0 kbps          00:00:00.000    0 bytes         0 bytes         00:00:00.000    

STREAM DIAGNOSTICS:

File            PID             Type            Codec           Language                Seconds                 Bitrate                 Bytes           Packets         
----            ---             ----            -----           --------                --------------          --------------          -------------   -----           
00006.M2TS      4113 (0x1011)   0x1B            AVC                                     0.00                    0                       0               0               
00009.M2TS      4113 (0x1011)   0x1B            AVC                                     0.00                    0                       0               0               
00009.M2TS      4352 (0x1100)   0x80            LPCM            eng (English)           0.00                    0                       0               0               
00007.M2TS      4113 (0x1011)   0x1B            AVC                                     0.00                    0                       0               0               
00008.M2TS      4113 (0x1011)   0x1B            AVC                                     0.00                    0                       0               0               

[/code]
<---- END FORUMS PASTE ---->

QUICK SUMMARY:

Disc Title: THE_BRUCE_MCMOUSE_SHOW
Disc Size: 18,090,096,640 bytes
Protection: AACS(v0)
BD-Java: No
Playlist: 00003.MPLS  
Size: 56,315,904 bytes
Length: 0:00:26.568
Total Bitrate: 16.96 Mbps
Video: MPEG-4 AVC Video / 0 kbps / 1080p / 23.976 fps / 16:9 / High Profile 4.1 / 
Audio: English / LPCM Audio / 2.0 / 48 kHz / 2304 kbps / 24-bit


********************
PLAYLIST: 00002.MPLS  
********************

<--- BEGIN FORUMS PASTE --->
[code]
                                                                                                                  Total   Video                                             
Title                                                           Codec   Length   Movie Size      Disc Size       Bitrate Bitrate Main Audio Track                          Secondary Audio Track
-----                                                           ------  -------  --------------  --------------  ------- ------- ------------------                        ---------------------
00002.MPLS                                                      AVC     0:00:10  595,968         18,090,096,640  0.48    0.00                                              
[/code]

[code]

DISC INFO:

Disc Title:     THE_BRUCE_MCMOUSE_SHOW
Disc Size:      18,090,096,640 bytes
Protection:     AACS(v0)
BD-Java:        No
BDInfo:         0.5.8.7 (compatible layout created by DVDFab 11.0.1.0)

PLAYLIST REPORT:

Name:                   00002.MPLS  
Length:                 0:00:10.010 (h:m:s.ms)
Size:                   595,968 bytes
Total Bitrate:          0.48 Mbps

VIDEO:

Codec                   Bitrate             Description     
-----                   -------             -----------     
MPEG-4 AVC Video        0 kbps              1080i / 29.970 fps / 16:9 / High Profile 4.1 / 

FILES:

Name            Time In         Length          Size            Total Bitrate   
----            -------         ------          ----            -------------   
00005.M2TS      0:00:00.000     0:00:10.010     595,968         476 kbps        

CHAPTERS:

Number          Time In         Length          Avg Video Rate  Max 1-Sec Rate  Max 1-Sec Time  Max 5-Sec Rate  Max 5-Sec Time  Max 10Sec Rate  Max 10Sec Time  Avg Frame Size  Max Frame Size  Max Frame Time  
------          -------         ------          --------------  --------------  --------------  --------------  --------------  --------------  --------------  --------------  --------------  --------------  
1               0:00:00.000     0:00:10.010     0 kbps          0 kbps          00:00:00.000    0 kbps          00:00:00.000    0 kbps          00:00:00.000    0 bytes         0 bytes         00:00:00.000    

STREAM DIAGNOSTICS:

File            PID             Type            Codec           Language                Seconds                 Bitrate                 Bytes           Packets         
----            ---             ----            -----           --------                --------------          --------------          -------------   -----           
00005.M2TS      4113 (0x1011)   0x1B            AVC                                     0.00                    0                       0               0               

[/code]
<---- END FORUMS PASTE ---->

QUICK SUMMARY:

Disc Title: THE_BRUCE_MCMOUSE_SHOW
Disc Size: 18,090,096,640 bytes
Protection: AACS(v0)
BD-Java: No
Playlist: 00002.MPLS  
Size: 595,968 bytes
Length: 0:00:10.010
Total Bitrate: 0.48 Mbps
Video: MPEG-4 AVC Video / 0 kbps / 1080i / 29.970 fps / 16:9 / High Profile 4.1 / 




Create a new paste based on this one


Comments: