[ create a new paste ] login | about

Link: http://codepad.org/TwiYXeKQ    [ raw code | fork ]

Plain Text, pasted on Jul 23:
foobar2000 1.5 / Dynamic Range Meter 1.1.1
log date: 2020-07-21 02:13:22

--------------------------------------------------------------------------------
Analyzed: Fiona Joy Hawkins / Christmas Joy
--------------------------------------------------------------------------------

DR         Peak         RMS     Duration Track
--------------------------------------------------------------------------------
DR12      -5.00 dB   -24.41 dB      6:06 01-Walking In The Air
DR13      -5.71 dB   -25.26 dB      5:31 02-Still Still Still
DR13      -4.91 dB   -26.09 dB      6:04 03-Silent Night
DR14      -5.13 dB   -23.87 dB      4:44 04-Jingle Bells
DR13      -5.17 dB   -25.24 dB      5:59 05-Gliding On A Sleigh
DR13      -5.98 dB   -26.63 dB      3:22 06-A Christmas Wedding
DR14      -6.67 dB   -27.59 dB      5:19 07-O Come O Come Emmanuel
DR13      -5.39 dB   -26.33 dB      4:40 08-Flight Of The Snowbird
DR12      -6.63 dB   -27.26 dB      4:11 09-The Holly And The Ivy
DR13      -6.44 dB   -25.76 dB      5:50 10-Christmas Joy
DR15      -5.41 dB   -28.15 dB      4:00 11-Away In A Manger
--------------------------------------------------------------------------------

Number of tracks:  11
Official DR value: DR13

Samplerate:        2822400 Hz / PCM Samplerate: 176400 Hz
Channels:          6
Bits per sample:   1
Bitrate:           16934 kbps
Codec:             DST64
================================================================================

--------------------------------------------------------------------------------
Analyzed: Fiona Joy Hawkins / Christmas Joy
--------------------------------------------------------------------------------

DR         Peak         RMS     Duration Track
--------------------------------------------------------------------------------
DR12      -4.99 dB   -21.42 dB      6:06 01-Walking In The Air
DR14      -5.33 dB   -22.27 dB      5:31 02-Still Still Still
DR15      -5.19 dB   -24.16 dB      6:04 03-Silent Night
DR13      -5.32 dB   -20.74 dB      4:44 04-Jingle Bells
DR13      -6.06 dB   -21.98 dB      5:59 05-Gliding On A Sleigh
DR13      -5.50 dB   -23.58 dB      3:22 06-A Christmas Wedding
DR15      -5.66 dB   -24.34 dB      5:19 07-O Come O Come Emmanuel
DR14      -7.15 dB   -24.44 dB      4:40 08-Flight Of The Snowbird
DR13      -5.47 dB   -22.58 dB      4:11 09-The Holly And The Ivy
DR13      -5.37 dB   -21.12 dB      5:50 10-Christmas Joy
DR16      -4.91 dB   -24.36 dB      4:00 11-Away In A Manger
--------------------------------------------------------------------------------

Number of tracks:  11
Official DR value: DR13

Samplerate:        2822400 Hz / PCM Samplerate: 176400 Hz
Channels:          2
Bits per sample:   1
Bitrate:           5645 kbps
Codec:             DST64
================================================================================




Create a new paste based on this one


Comments: