[ create a new paste ] login | about

Link: http://codepad.org/U1Ayqois    [ raw code | fork ]

Plain Text, pasted on Aug 21:
foobar2000 1.3.17 / Dynamic Range Meter 1.1.1
log date: 2018-08-21 09:55:06

--------------------------------------------------------------------------------
Analyzed: R.E.M. / Monster
--------------------------------------------------------------------------------

DR         Peak         RMS     Duration Track
--------------------------------------------------------------------------------
DR11      -0.75 dB   -12.90 dB      4:00 01-What's the Frequency, Kenneth?
DR13      -1.13 dB   -14.70 dB      4:40 02-Crush with Eyeliner
DR12      -0.72 dB   -14.81 dB      3:42 03-King of Comedy
DR12      -1.12 dB   -14.93 dB      3:28 04-I Don't Sleep, I Dream
DR11      -0.15 dB   -12.58 dB      3:09 05-Star 69
DR11      -2.20 dB   -15.30 dB      3:53 06-Strange Currencies
DR13      -2.59 dB   -17.26 dB      4:13 07-Tongue
DR10      -1.11 dB   -14.77 dB      5:31 08-Bang and Blame
DR12      -0.43 dB   -13.58 dB      4:03 09-I Took Your Name
DR11      -1.97 dB   -14.42 dB      3:28 10-Let Me In
DR11      -0.59 dB   -12.83 dB      4:16 11-Circus Envy
DR11      -0.04 dB   -12.27 dB      4:54 12-You
--------------------------------------------------------------------------------

Number of tracks:  12
Official DR value: DR12

Samplerate:        96000 Hz
Channels:          2
Bits per sample:   24
Bitrate:           2848 kbps
Codec:             FLAC
================================================================================




Create a new paste based on this one


Comments: