[ create a new paste ] login | about

Link: http://codepad.org/U2swHsDE    [ raw code | fork ]

Plain Text, pasted on May 8:
foobar2000 1.4.1 / Dynamic Range Meter 1.1.1
log date: 2019-05-07 18:58:52

--------------------------------------------------------------------------------
Analyzed: ? / ?
--------------------------------------------------------------------------------

DR         Peak         RMS     Duration Track
--------------------------------------------------------------------------------
DR12      -3.80 dB   -19.91 dB      9:03 01-SOMEDAY MY PRINCE WILL COME
DR12      -6.03 dB   -22.14 dB      5:14 02-OLD FOLKS
DR14      -2.35 dB   -19.22 dB      8:31 03-PFRANCING
DR12      -7.58 dB   -23.84 dB      4:49 04-DRAD-DOG
DR13      -4.63 dB   -20.85 dB      9:33 05-TEO
DR13      -5.37 dB   -24.01 dB      4:52 06-I THOUGHT ABOUT YOU
DR13      -3.71 dB   -20.23 dB      7:06 07-BLUES NO.2
DR13      -5.97 dB   -23.75 dB      5:36 08-SOMEDAY MY PRINCE WILL COME (alternate take)
--------------------------------------------------------------------------------

Number of tracks:  8
Official DR value: DR13

Samplerate:        2822400 Hz / PCM Samplerate: 176400 Hz
Channels:          2
Bits per sample:   1
Bitrate:           5645 kbps
Codec:             DSD64
================================================================================




Create a new paste based on this one


Comments: