[ create a new paste ] login | about

Link: http://codepad.org/U3Tdjh1w    [ raw code | fork ]

Plain Text, pasted on Jul 23:
foobar2000 1.4.4 / Dynamic Range Meter 1.1.1
log date: 2019-07-23 11:26:00

--------------------------------------------------------------------------------
Analyzed: Hugo Montenegro / Others By Brothers & Scenes And Themes
--------------------------------------------------------------------------------

DR         Peak         RMS     Duration Track
--------------------------------------------------------------------------------
DR17      -0.02 dB   -18.10 dB      4:47 01-Caravan
DR9       -0.06 dB   -18.87 dB      3:18 02-Never can Say Goodbye
DR9       -0.01 dB   -17.36 dB      4:27 03-Noah's Arp
DR9       -0.06 dB   -18.05 dB      4:19 04-Feel Like Makin Love
DR9       -0.06 dB   -18.07 dB      3:42 05-Whats Going On
DR9       -0.07 dB   -18.79 dB      7:25 06-Nothing From Nothing Suite
DR9       -0.48 dB   -19.68 dB      3:25 07-Creeping 
DR8       -1.88 dB   -20.78 dB      3:21 08-I Heard it Through the Grapevine 
DR9       -1.46 dB   -19.95 dB      3:49 09-Aint No Mountain High Enough
DR9       -0.07 dB   -16.24 dB      2:54 10-Lost Horizon
DR10      -0.38 dB   -20.00 dB      3:03 11-A man and A Woman
DR10      -1.80 dB   -21.25 dB      3:02 12-Love Story
DR9       -1.58 dB   -18.99 dB      2:26 13-Lara's Theme  
DR9       -1.69 dB   -20.73 dB      2:26 14-The Shadow of your Smile 
DR10      -0.22 dB   -17.97 dB      3:03 15-Tara's Theme
DR10      -1.00 dB   -21.13 dB      2:27 16-Alfie
DR10      -0.08 dB   -18.20 dB      2:41 17-The Look of Love
DR9       -1.08 dB   -19.77 dB      2:24 18-Love theme from Romeo & Juliet
DR10      -1.86 dB   -19.59 dB      3:02 19-Learn to Say Goodbye
--------------------------------------------------------------------------------

Number of tracks:  19
Official DR value: DR10

Samplerate:        88200 Hz
Channels:          6
Bits per sample:   24
Bitrate:           5620 kbps
Codec:             FLAC
================================================================================




Create a new paste based on this one


Comments: