[ create a new paste ] login | about

Link: http://codepad.org/U5QvpVQc    [ raw code | fork ]

Plain Text, pasted on Dec 7:
foobar2000 1.3.17 / Dynamic Range Meter 1.1.1
log date: 2018-12-07 08:52:30

--------------------------------------------------------------------------------
Analyzed: Eric Clapton / Happy Xmas (Deluxe Edition)
--------------------------------------------------------------------------------

DR         Peak         RMS     Duration Track
--------------------------------------------------------------------------------
DR9        0.00 dB   -10.48 dB      2:58 01-White Christmas
DR8        0.00 dB    -9.39 dB      4:44 02-Away In A Manger (Once In Royal David's City)
DR8        0.00 dB    -9.79 dB      3:36 03-For Love On Christmas Day
DR8       -0.06 dB    -9.13 dB      3:38 04-Everyday Will Be Like A Holiday
DR8       -0.17 dB    -9.39 dB      4:23 05-Christmas Tears
DR8        0.00 dB    -9.44 dB      4:00 06-Home For The Holidays
DR10      -0.06 dB   -11.25 dB      5:58 07-Jingle Bells
DR8        0.00 dB    -9.76 dB      2:52 08-Christmas In My Hometown
DR8       -0.03 dB    -9.76 dB      4:44 09-It's Christmas
DR9       -0.15 dB   -11.33 dB      4:07 10-Sentimental Moments
DR9        0.00 dB    -9.31 dB      3:51 11-Lonesome Christmas
DR8       -0.13 dB    -8.81 dB      4:03 12-Silent Night
DR8       -0.13 dB    -9.45 dB      4:12 13-Merry Christmas Baby
DR8       -0.02 dB    -9.70 dB      3:29 14-Have Yourself A Merry Little Christmas
DR8       -0.11 dB    -8.81 dB      2:43 15-A Little Bit Of Christmas Love
DR8       -0.13 dB    -9.19 dB      3:56 16-You Always Hurt The One You Love
--------------------------------------------------------------------------------

Number of tracks:  16
Official DR value: DR8

Samplerate:        44100 Hz
Channels:          2
Bits per sample:   16
Bitrate:           877 kbps
Codec:             FLAC
================================================================================




Create a new paste based on this one


Comments: