[ create a new paste ] login | about

Link: http://codepad.org/U5qYCk3t    [ raw code | fork ]

Plain Text, pasted on Jun 26:
foobar2000 1.3.17 / Dynamic Range Meter 1.1.1
log date: 2018-06-26 10:50:39

--------------------------------------------------------------------------------
Analyzed: John Lennon / Plastic Ono Band (MFSL LP)
--------------------------------------------------------------------------------

DR         Peak         RMS     Duration Track
--------------------------------------------------------------------------------
DR14      -0.43 dB   -17.45 dB      5:36 01-Mother
DR13      -0.95 dB   -17.28 dB      1:52 02-Hold On
DR13      -0.55 dB   -15.03 dB      3:38 03-I Found Out
DR12      -3.49 dB   -20.25 dB      3:51 04-Working Class Hero
DR12      -1.82 dB   -17.20 dB      2:52 05-Isolation
DR13      -0.54 dB   -14.92 dB      4:35 06-Remember
DR11      -6.46 dB   -22.40 dB      3:25 07-Love
DR12      -0.99 dB   -15.05 dB      6:00 08-Well Well Well
DR10      -8.97 dB   -21.46 dB      2:56 09-Look At Me
DR12      -0.05 dB   -15.89 dB      4:11 10-God
DR11     -12.25 dB   -28.67 dB      0:59 11-My Mommy's Dead
DR11      -1.39 dB   -14.33 dB      3:23 12-Power To The People
DR11      -1.90 dB   -16.21 dB      3:10 13-Do The Oz
--------------------------------------------------------------------------------

Number of tracks:  13
Official DR value: DR12

Samplerate:        44100 Hz
Channels:          2
Bits per sample:   16
Bitrate:           905 kbps
Codec:             FLAC
================================================================================




Create a new paste based on this one


Comments: