[ create a new paste ] login | about

Link: http://codepad.org/UFZsz2h6    [ raw code | fork ]

Plain Text, pasted on Dec 26:
foobar2000 1.3 / Dynamic Range Meter 1.1.1
log date: 2015-01-07 13:47:29

--------------------------------------------------------------------------------
Analyzed: (Various Balinese Performers) / Sacred Rhythm Of Bali (2008 Hybrid SACD)
--------------------------------------------------------------------------------

DR         Peak         RMS     Duration Track
--------------------------------------------------------------------------------
DR14      -5.88 dB   -26.10 dB      4:15 01-Pengalang
DR17      -1.73 dB   -23.79 dB      1:30 02-Pengawit
DR13     -12.01 dB   -28.48 dB      2:08 03-Kejojor
DR13      -6.63 dB   -23.79 dB      3:07 04-Bebapangan
DR19      -0.01 dB   -25.60 dB      8:58 05-Kapandung Sita
DR14      -9.42 dB   -29.32 dB      3:31 06-Sekar Jepun
DR14      -6.13 dB   -26.89 dB      8:53 07-Semara Winangun
DR17      -0.78 dB   -25.47 dB      9:07 08-Ring Taman Asoka
DR15      -1.44 dB   -21.54 dB      3:20 09-Paponggangan
DR17      -2.70 dB   -25.32 dB      2:20 10-Pasiat
DR16      -3.42 dB   -24.34 dB     10:29 11-Saketi
DR16      -1.06 dB   -22.26 dB      5:24 12-Bebaturan
--------------------------------------------------------------------------------

Number of tracks:  12
Official DR value: DR16

Samplerate:        88200 Hz
Channels:          6
Bits per sample:   24
Bitrate:           5900 kbps
Codec:             FLAC
================================================================================




Create a new paste based on this one


Comments: