[ create a new paste ] login | about

Link: http://codepad.org/UHWyrhHG    [ raw code | fork ]

Plain Text, pasted on Dec 5:
[CUETools log; Date: 12/4/2016 3:38:13 PM; Version: 2.1.5]
[CTDB TOCID: fa4G5qW5kKxDn5V6o_0LDFArYBQ-] found.
Track | CTDB Status
  1   | (63/64) Accurately ripped
  2   | (63/64) Accurately ripped
  3   | (63/64) Accurately ripped
  4   | (62/64) Accurately ripped
  5   | (63/64) Accurately ripped
  6   | (63/64) Accurately ripped
  7   | (63/64) Accurately ripped
  8   | (62/64) Accurately ripped
  9   | (61/64) Accurately ripped
 10   | (61/64) Accurately ripped
 11   | (59/64) Accurately ripped
 12   | (56/64) Accurately ripped
[AccurateRip ID: 001d6983-0119cdbb-ad11220c] found.
Track   [  CRC   |   V2   ] Status
 01     [211b5f52|3c1586d0] (000+005/105) Accurately ripped
 02     [3e26c00e|d0250f69] (000+005/105) Accurately ripped
 03     [dfbb2a40|00625a68] (000+005/105) Accurately ripped
 04     [0fefb13b|cae0f600] (000+005/105) Accurately ripped
 05     [bafa322a|3209f9f7] (000+005/102) Accurately ripped
 06     [93979e44|b3212f54] (000+005/103) Accurately ripped
 07     [623d58e6|ebf0100b] (000+005/103) Accurately ripped
 08     [d4aef3f4|bbe6e7de] (000+005/102) Accurately ripped
 09     [b12e26be|3faa299d] (000+005/103) Accurately ripped
 10     [575660aa|20f24cc8] (000+005/102) Accurately ripped
 11     [11c83cb9|cb3cea24] (000+005/099) Accurately ripped
 12     [a608f041|686ab637] (000+005/089) Accurately ripped
Offsetted by -6:
 01     [acbf2be1] (027/105) Accurately ripped
 02     [39221feb] (027/105) Accurately ripped
 03     [5a1b6b44] (027/105) Accurately ripped
 04     [32e47a1a] (027/105) Accurately ripped
 05     [d4a4f8b0] (025/102) Accurately ripped
 06     [a7db64a7] (026/103) Accurately ripped
 07     [104981c6] (027/103) Accurately ripped
 08     [d396fd35] (026/102) Accurately ripped
 09     [fd31f974] (027/103) Accurately ripped
 10     [fa7b32c4] (027/102) Accurately ripped
 11     [9a25c173] (025/099) Accurately ripped
 12     [5458656a] (020/089) Accurately ripped
Offsetted by 634:
 01     [13e7d902] (019/105) Accurately ripped
 02     [f0ef9896] (019/105) Accurately ripped
 03     [9743a1fe] (019/105) Accurately ripped
 04     [525428c4] (019/105) Accurately ripped
 05     [14e96027] (019/102) Accurately ripped
 06     [a9055b57] (019/103) Accurately ripped
 07     [21a234fd] (019/103) Accurately ripped
 08     [6be329c4] (019/102) Accurately ripped
 09     [222cf363] (019/103) Accurately ripped
 10     [da0f8828] (019/102) Accurately ripped
 11     [8879f205] (019/099) Accurately ripped
 12     [37247a18] (018/089) Accurately ripped
Offsetted by 521:
 01     [eea4209f] (000/105) No match (V2 was not tested)
 02     [5475db99] (000/105) No match (V2 was not tested)
 03     [000b5c63] (000/105) No match (V2 was not tested)
 04     [75d93073] (000/105) No match (V2 was not tested)
 05     [7a8f4c75] (000/102) No match (V2 was not tested)
 06     [faf4455f] (000/103) No match (V2 was not tested)
 07     [cebecf87] (000/103) No match (V2 was not tested)
 08     [b0026477] (000/102) No match (V2 was not tested)
 09     [93d78829] (000/103) No match (V2 was not tested)
 10     [91e7ade8] (000/102) No match (V2 was not tested)
 11     [9a327e26] (000/099) No match (V2 was not tested)
 12     [0173b056] (000/089) No match (V2 was not tested)
Offsetted by 640:
 01     [27fd0831] (000/105) No match (V2 was not tested)
 02     [71ab7727] (000/105) No match (V2 was not tested)
 03     [b0780d71] (000/105) No match (V2 was not tested)
 04     [d2f16305] (000/105) No match (V2 was not tested)
 05     [71caadc9] (000/102) No match (V2 was not tested)
 06     [7f247398] (000/103) No match (V2 was not tested)
 07     [3336c89e] (000/103) No match (V2 was not tested)
 08     [ced6ed6a] (000/102) No match (V2 was not tested)
 09     [11b8792b] (000/103) No match (V2 was not tested)
 10     [a23d976b] (000/102) No match (V2 was not tested)
 11     [ecbda5a4] (000/099) No match (V2 was not tested)
 12     [d847c8c4] (000/089) No match (V2 was not tested)

Track Peak [ CRC32  ] [W/O NULL] [  LOG   ]
 --   99.9 [5C1A589A] [E88DC1DB]   CRC32   
 01   99.9 [984AFB62] [9A24287B]           
 02   99.9 [224059D4] [B1137A38]           
 03   99.9 [899CA4F2] [95BBFBFC]           
 04   99.9 [D60A2FD1] [473EC113]           
 05   99.9 [581914DB] [3AE77F1B]           
 06   99.9 [53BEFB34] [7DA0BDFB]           
 07   99.9 [B3F3793F] [2E9418E7]           
 08   99.9 [C3D88C01] [F474863D]           
 09   99.9 [C745E400] [A780B3D8]           
 10   99.9 [0D9562AF] [4B97DC60]           
 11   99.9 [1487C2C1] [0E78E43E]           
 12   99.9 [FBE59BFD] [D2874436]           



Create a new paste based on this one


Comments: