[ create a new paste ] login | about

Link: http://codepad.org/UJEhftZ5    [ raw code | fork ]

Plain Text, pasted on Dec 7:
foobar2000 1.3.16 / Dynamic Range Meter 1.1.1
log date: 2017-12-07 10:51:45

--------------------------------------------------------------------------------
Analyzed: Emerson,Lake & Palmer / Brain Salad Surgery (Deluxe Edition) (Disc3)
--------------------------------------------------------------------------------

DR         Peak         RMS     Duration Track
--------------------------------------------------------------------------------
DR8       -0.21 dB   -11.00 dB      2:46 01-Jerusalem
DR9       -0.40 dB   -13.31 dB      7:23 02-Toccata (An Adaptation Of Ginastera's 1St Piano Concerto, 4th Movement)
DR12      -0.61 dB   -17.84 dB      2:53 03-Still...You Turn Me On
DR11      -0.54 dB   -14.71 dB      2:21 04-Benny The Bouncer
DR10      -0.53 dB   -12.33 dB      8:35 05-Karn Evil 9: 1st Impression - Part 1
DR9       -0.53 dB   -12.35 dB      4:48 06-Karn Evil 9: 1st Impression - Part 2
DR13      -0.59 dB   -17.48 dB      7:07 07-Karn Evil 9: 2nd Impression
DR11      -0.53 dB   -14.01 dB      9:05 08-Karn Evil 9: 3rd Impression
--------------------------------------------------------------------------------

Number of tracks:  8
Official DR value: DR10

Samplerate:        44100 Hz
Channels:          2
Bits per sample:   16
Bitrate:           922 kbps
Codec:             FLAC
================================================================================




Create a new paste based on this one


Comments: